<?xml version="1.0" encoding="UTF-8"?>
<!DOCTYPE svg  PUBLIC '-//W3C//DTD SVG 1.1//EN'  'http://www.w3.org/Graphics/SVG/1.1/DTD/svg11.dtd'>
<svg version="1.1" xmlns="http://www.w3.org/2000/svg">
<defs>
<font id="Iconic-Bold" horiz-adv-x="0">
<font-face font-family="Iconic" font-weight="600" ascent="1638" bbox="-657 -405 1657 1762" cap-height="1317" descent="-410" panose-1="2 15 5 6 2 2 0 0 0 4" underline-position="-154" underline-thickness="102" unicode-range="U+0020-2083" units-per-em="2048" x-height="970"/>
<missing-glyph/>
<glyph glyph-name="space" horiz-adv-x="461" unicode=" "/>
<glyph d="M224 423.5q-29 29.5 -29 86.5v691q0 57 29.5 87t85.5 30q57 0 86 -30t29 -87v-691q0 -57 -29.5 -86.5t-86.5 -29.5q-56 0 -85 29.5zM241.5 7q-31.5 19 -50.5 50.5t-19 68.5t19 69t50.5 50.5t68.5 18.5t68.5 -18.5t50 -50.5t18.5 -69t-18.5 -68.5t-50 -50.5t-68.5 -19 t-68.5 19z" glyph-name="exclam" horiz-adv-x="619" unicode="!"/>
<glyph d="M312 941q0 -56 -27.5 -85.5t-80.5 -29.5t-80.5 29.5t-27.5 85.5v256q0 113 108 113t108 -113v-256zM680 941q0 -56 -28 -85.5t-81 -29.5q-52 0 -79.5 29.5t-27.5 85.5v256q-1 56 26.5 84.5t80.5 28.5q109 0 109 -113v-256z" glyph-name="quotedbl" horiz-adv-x="776" unicode='"'/>
<glyph d="M957 740l-33 -196h72q56 0 84.5 -29.5t28.5 -87.5q0 -113 -102 -113h-122l-37 -220q-8 -50 -36.5 -75.5t-74.5 -25.5t-83 29t-37 86q0 18 2 28l30 178h-192l-37 -220q-7 -50 -36 -75.5t-75 -25.5t-82.5 29t-36.5 86q0 18 2 28l30 178h-55q-56 0 -84.5 30.5t-28.5 89.5 q0 110 118 110h89l32 196h-73q-56 0 -84.5 27.5t-28.5 80.5q0 60 29 91t86 31h110l44 261q6 35 39 60.5t73 25.5q54 0 84.5 -31.5t30.5 -89.5q0 -13 -4 -41l-31 -185h192l44 261q6 35 39 60.5t73 25.5q54 0 84.5 -31.5t30.5 -89.5q0 -13 -4 -41l-31 -185h53q56 0 85 -28.5 t29 -83.5q0 -58 -26 -88t-77 -30h-103zM721 740h-192l-33 -196h192z" glyph-name="numbersign" horiz-adv-x="1229" unicode="#"/>
<glyph d="M871.5 195q-41.5 -77 -115.5 -129.5t-169 -72.5v-80q0 -48 -24.5 -73t-71.5 -25q-49 0 -74 25t-25 73v75q-136 22 -268 107q-57 35 -57 93q0 31 16 60t41 47t50 18q18 0 33.5 -5t44.5 -22q52 -33 110.5 -53t132.5 -20q53 0 96 19t67.5 52t24.5 74q0 50 -30 87t-80 65 t-144 71q-104 46 -176 93t-118.5 116.5t-46.5 163.5q0 98 40 173.5t109 124t155 66.5v68q0 48 25.5 73t74.5 25q47 0 71 -25t24 -73v-65q69 -10 132 -38t129 -78q41 -30 41 -79q0 -29 -15 -56.5t-40 -44.5t-55 -17q-19 0 -36.5 7t-46.5 24q-48 33 -97.5 47.5t-106.5 14.5 q-74 0 -124 -36.5t-50 -102.5q0 -37 21.5 -63.5t55 -45.5t97.5 -48q32 -13 59 -27q128 -63 197.5 -107.5t117 -119t47.5 -188.5q0 -91 -41.5 -168z" glyph-name="dollar" horiz-adv-x="981" unicode="$"/>
<glyph d="M96 1055q0 73 31.5 133t87 94t123.5 34q69 0 125 -34t88 -94t32 -133v-202q0 -73 -32 -132.5t-88 -93.5t-125 -34q-68 0 -123.5 34t-87 93.5t-31.5 132.5v202zM249 860q0 -51 23 -82.5t66 -31.5q44 0 68.5 31.5t24.5 82.5v189q0 54 -24.5 84.5t-68.5 30.5 q-42 0 -65.5 -31t-23.5 -84v-189zM525 62q-17 -35 -34.5 -51.5t-43.5 -16.5q-45 0 -71 22t-26 58q0 26 13 53l524 1125q12 27 34 42.5t49 15.5q47 0 69 -20t22 -55q0 -33 -16 -69zM842 437q0 73 31.5 133t87 94t123.5 34q69 0 125 -34t88 -94t32 -133v-202q0 -73 -32 -132.5 t-88 -93.5t-125 -34q-68 0 -123.5 34t-87 93.5t-31.5 132.5v202zM995 242q0 -51 23 -82.5t66 -31.5q44 0 68.5 31.5t24.5 82.5v189q0 54 -24.5 84.5t-68.5 30.5q-42 0 -65.5 -31t-23.5 -84v-189z" glyph-name="percent" horiz-adv-x="1411" unicode="%"/>
<glyph d="M1209.5 200q20.5 -30 20.5 -69q0 -51 -37 -81q-55 -38 -99.5 -53t-110.5 -15q-75 0 -132.5 26t-96.5 73q-98 -80 -224 -81h-35q-181 0 -291 89.5t-110 285.5q0 92 38.5 170.5t111.5 126.5q-74 43 -112 114t-38 167q0 177 104.5 270.5t314.5 93.5h36q72 0 149.5 -26 t141.5 -71q36 -24 53.5 -54.5t16.5 -61.5q0 -25 -16 -47.5t-41 -36.5t-50 -14q-19 0 -34 8q-54 34 -107.5 53t-115.5 19h-35q-85 0 -135 -37t-50 -110q0 -72 42.5 -110.5t117.5 -38.5l507 2q50 0 76.5 -26.5t26.5 -76.5t-26.5 -76t-76.5 -26h-90v-278q0 -53 27 -84.5 t81 -31.5q23 0 42.5 5t52.5 23q24 14 50 11q33 -2 53.5 -32zM628 242q31 10 58 31v17v269h-182q-86 0 -132 -43t-46 -121t51 -120.5t134 -42.5h40q46 0 77 10z" glyph-name="ampersand" horiz-adv-x="1234" unicode="&amp;"/>
<glyph d="M312 944q0 -57 -27.5 -86.5t-80.5 -29.5t-80.5 29.5t-27.5 86.5v256q0 113 108 113t108 -113v-256z" glyph-name="quotesingle" horiz-adv-x="408" unicode="'"/>
<glyph d="M399.5 -271q-28.5 8 -59.5 38q-101 86 -154 278t-53 434v127q0 242 54 434.5t157 278.5q53 51 103 51q38 0 65.5 -17t42 -40.5t14.5 -43.5q0 -49 -44 -99q-84 -77 -122.5 -214t-38.5 -351v-124q0 -210 38.5 -345t122.5 -215q24 -27 33.5 -49t9.5 -48q0 -19 -14 -43.5 t-40 -42t-60 -17.5q-26 0 -54.5 8z" glyph-name="parenleft" horiz-adv-x="664" unicode="("/>
<glyph d="M150 -261.5q-26 17.5 -40 42t-14 43.5q0 26 9.5 48t33.5 49q84 80 122.5 215t38.5 345v124q0 214 -38.5 351t-122.5 214q-43 49 -43 99q0 20 14 43.5t41.5 40.5t65.5 17q50 0 103 -51q103 -86 157 -278.5t54 -434.5v-127q0 -242 -53 -434t-154 -278q-31 -30 -59.5 -38 t-54.5 -8q-34 0 -60 17.5z" glyph-name="parenright" horiz-adv-x="664" unicode=")"/>
<glyph d="M318 812q0 62 13 155q-61 -54 -113 -87q-33 -24 -59 -24q-29 0 -51 31q-18 26 -18 48q0 38 50 63q64 35 139 64q-69 26 -130 58q-59 27 -59 66q0 24 19 50q21 30 50 30q28 0 66 -29q44 -29 107 -80q-13 81 -13 152q0 77 70 77q65 0 65 -73q0 -71 -15 -157q62 51 117 87 q32 21 56 21q30 0 51 -30q18 -25 18 -47q0 -37 -54 -64q-65 -35 -135 -61q81 -30 139 -64q49 -25 49 -62q0 -23 -18 -49q-22 -28 -49 -28q-24 0 -58 23q-49 31 -116 86q11 -66 15 -143l1 -15q0 -74 -68 -74q-69 0 -69 76z" glyph-name="asterisk" horiz-adv-x="767" unicode="*"/>
<glyph d="M799.5 568q29.5 -28 29.5 -83q0 -52 -29.5 -79t-86.5 -27h-180v-179q0 -57 -27.5 -86.5t-80.5 -29.5t-81 29.5t-28 86.5v179h-178q-57 0 -86.5 27t-29.5 80q0 54 29.5 82t86.5 28h178v179q0 57 28 86.5t81 29.5t80.5 -29.5t27.5 -86.5v-179h180q57 0 86.5 -28z" glyph-name="plus" horiz-adv-x="850" unicode="+"/>
<glyph d="M95.5 -252.5q-23.5 28.5 -23.5 68.5q0 15 3 30l75 278q9 37 42 59.5t72 24.5q28 0 54 -16t42.5 -42t16.5 -56q0 -21 -11 -46l-109 -259q-33 -69 -95 -71q-43 1 -66.5 29.5z" glyph-name="comma" horiz-adv-x="466" unicode=","/>
<glyph d="M106.5 396q-30.5 27 -30.5 79q0 54 30 82t87 28h456q58 0 87.5 -28t29.5 -82q0 -52 -29.5 -79t-87.5 -27h-456q-56 0 -86.5 27z" glyph-name="hyphen" horiz-adv-x="849" unicode="-"/>
<glyph d="M164.5 7q-31.5 19 -50.5 50.5t-19 68.5t19 69t50.5 50.5t68.5 18.5t68.5 -18.5t50 -50.5t18.5 -69t-18.5 -68.5t-50 -50.5t-68.5 -19t-68.5 19z" glyph-name="period" horiz-adv-x="463" unicode="."/>
<glyph d="M276 81q-12 -37 -44.5 -59t-70.5 -22q-48 0 -84 28.5t-36 74.5q0 17 6 35l348 1090q14 43 44 66t68 23q52 0 89 -29.5t37 -78.5q0 -21 -7 -42z" glyph-name="slash" horiz-adv-x="674" unicode="/"/>
<glyph d="M96 859q0 133 56.5 240t155.5 168t221 61q123 0 223 -61t157 -168t57 -240v-410q0 -132 -57 -238.5t-157 -167.5t-223 -61q-122 0 -221 61t-155.5 167.5t-56.5 238.5v410zM327 460q0 -74 25 -130t71 -86.5t106 -30.5q62 0 108.5 30.5t72 86.5t25.5 130v391 q0 75 -25.5 130.5t-72 85.5t-108.5 30q-61 0 -106.5 -30t-70.5 -85.5t-25 -130.5v-391z" glyph-name="zero" horiz-adv-x="1062" unicode="0"/>
<glyph d="M300.5 23q-30.5 30 -30.5 86v897l-62 -41q-27 -9 -52 -9q-47 0 -73.5 34.5t-26.5 79.5q2 70 52 99l204 127q21 13 37.5 17t39.5 4q57 0 84.5 -25.5t27.5 -71.5v-1111q0 -56 -28.5 -86t-83.5 -30q-58 0 -88.5 30z" glyph-name="one" horiz-adv-x="673" unicode="1"/>
<glyph d="M89 34q-31 34 -31 84t28 84l422 486q59 68 93 130.5t34 120.5v10q1 40 -19 74t-56.5 54.5t-82.5 20.5q-66 0 -110.5 -26t-79.5 -64q-4 -3 -17 -14t-29 -17t-37 -6q-47 0 -81 24.5t-34 67.5q0 61 42 103q64 69 149 115.5t207 46.5q109 0 195 -46.5t134.5 -126.5t48.5 -177 v-48q0 -167 -168 -362l-296 -338h418q57 0 87 -29t30 -84q0 -57 -29.5 -87t-87.5 -30h-651q-48 0 -79 34z" glyph-name="two" horiz-adv-x="986" unicode="2"/>
<glyph d="M737.5 798q81.5 -44 126.5 -128t45 -200v-57q0 -122 -59 -220.5t-161 -154.5t-227 -56q-63 0 -114.5 14t-88 32.5t-83.5 47.5q-57 29 -81 58.5t-24 75.5q0 26 13 52.5t37 44t56 17.5q16 0 31 -5t46 -24q44 -31 69.5 -47t64.5 -28.5t88 -12.5q57 0 103.5 27.5t73 76 t26.5 108.5v50q0 87 -58.5 135t-153.5 48h-92q-46 0 -74.5 32t-28.5 79q0 22 9 44t25 36l253 245h-356q-57 0 -87 27t-30 80q0 57 30 86.5t87 29.5h557q58 0 81.5 -27.5t23.5 -79.5q0 -63 -55 -109l-264 -250q110 -3 191.5 -47z" glyph-name="three" horiz-adv-x="975" unicode="3"/>
<glyph d="M612 29.5q-30 29.5 -30 86.5v172h-427q-54 0 -86 32.5t-32 96.5q0 23 13 57l322 768q13 34 42 53t68 19q56 0 86 -24t30 -68q0 -27 -14 -66l-277 -638h275v125q0 57 30 87t88 30q55 0 84 -30t29 -87v-125h55q55 0 83.5 -29t28.5 -86t-28.5 -86t-83.5 -29h-55v-172 q0 -56 -29 -86t-84 -30q-58 0 -88 29.5z" glyph-name="four" horiz-adv-x="1004" unicode="4"/>
<glyph d="M319.5 19.5q-91.5 36.5 -156.5 84.5q-31 19 -45.5 45.5t-13.5 62.5q1 25 16.5 51t41.5 43t57 17q26 0 54 -15l37 -23q54 -37 102.5 -57.5t114.5 -20.5q63 0 111 27t74.5 76.5t26.5 115.5v24q0 192 -253 192q-40 0 -75.5 -9t-80.5 -25q-60 -20 -89 -25q-49 -1 -80.5 31.5 t-32.5 81.5l-3 501q-1 56 30.5 84.5t92.5 28.5h546q56 0 85.5 -29.5t29.5 -87.5q0 -55 -29.5 -84t-85.5 -29h-436v-259q39 23 93 37t104 14q112 0 206 -43.5t151 -135.5t57 -230v-37q0 -134 -59 -234.5t-160.5 -154.5t-225.5 -54q-113 0 -204.5 36.5z" glyph-name="five" horiz-adv-x="1031" unicode="5"/>
<glyph d="M735 846.5q93 -49.5 147 -135.5t54 -195v-148q0 -112 -55 -199.5t-151 -137t-214 -49.5t-214 49.5t-151 137t-55 199.5v104q0 17 1 26l-1 351q0 160 59.5 267.5t161 159.5t229.5 52q68 0 117.5 -7t98.5 -23q46 -16 61.5 -43t14.5 -75q0 -41 -26.5 -71.5t-69.5 -29.5 q-31 5 -68 12q-30 7 -55.5 10.5t-62.5 3.5q-109 0 -172.5 -56.5t-63.5 -155.5v-50q100 59 208 56q114 -3 207 -52.5zM706 494q0 52 -25 93t-68.5 63.5t-96.5 22.5t-96.5 -23.5t-68.5 -66t-25 -96.5v-88q0 -57 25 -100.5t68.5 -67t96.5 -23.5t96.5 23.5t68.5 67t25 100.5v95z " glyph-name="six" horiz-adv-x="992" unicode="6"/>
<glyph d="M193 23q-31 24 -31 69q0 36 21 84l388 904h-414q-58 0 -88.5 29.5t-30.5 85.5t30.5 86t88.5 30h617q47 0 76 -33t29 -79q0 -20 -3.5 -34t-11.5 -30l-480 -1063q-17 -36 -44 -54.5t-57 -18.5q-59 0 -90 24z" glyph-name="seven" horiz-adv-x="908" unicode="7"/>
<glyph d="M842.5 611q55.5 -84 55.5 -199v-56q0 -101 -57.5 -185.5t-154.5 -133.5t-213 -49q-114 0 -211 49t-154.5 133t-57.5 183v59q0 111 55 194.5t135 129.5q-52 38 -81 95t-30 128v47q0 94 45 167.5t123 114t173 40.5t173.5 -40t123.5 -112.5t45 -166.5v-51 q-1 -68 -28.5 -123.5t-78.5 -93.5q82 -46 137.5 -130zM327 971q0 -36 19 -66t52 -47t72 -17t72 17.5t52 47.5t19 66v35q0 59 -41 96.5t-102 37.5t-102 -38t-41 -97v-35zM665 438q0 52 -25.5 92.5t-70 63.5t-98.5 23q-52 0 -96 -23t-70 -64.5t-26 -92.5v-39q0 -52 26.5 -93 t71 -64t96.5 -23q53 0 97 23.5t69.5 65t25.5 93.5v38z" glyph-name="eight" horiz-adv-x="948" unicode="8"/>
<glyph d="M884 835q0 -17 -1 -25v-347q0 -158 -58.5 -264t-158.5 -157.5t-227 -51.5q-66 0 -115 7t-97 23q-46 16 -61 42.5t-14 73.5q0 41 26 71t69 30q29 -5 64 -12q31 -7 56.5 -10.5t62.5 -3.5q108 0 170.5 55.5t62.5 153.5v49q-97 -58 -205 -55q-113 3 -205 52t-145 133.5 t-53 191.5v147q0 110 54.5 196.5t149 135.5t211.5 49q116 0 210.5 -49t149 -135.5t54.5 -196.5v-103zM656 908q0 56 -24.5 98.5t-67 66t-94.5 23.5q-53 0 -96 -23.5t-67.5 -66t-24.5 -98.5v-94q0 -51 24.5 -91.5t67.5 -63t96 -22.5q52 0 94.5 23.5t67 65.5t24.5 95v87z" glyph-name="nine" horiz-adv-x="979" unicode="9"/>
<glyph d="M164.5 7q-31.5 19 -50.5 50.5t-19 68.5t19 69t50.5 50.5t68.5 18.5t68.5 -18.5t50 -50.5t18.5 -69t-18.5 -68.5t-50 -50.5t-68.5 -19t-68.5 19zM164.5 737q-31.5 19 -50.5 50.5t-19 68.5t19 69t50.5 50.5t68.5 18.5t68.5 -18.5t50 -50.5t18.5 -69t-18.5 -68.5t-50 -50.5 t-68.5 -19t-68.5 19z" glyph-name="colon" horiz-adv-x="463" unicode=":"/>
<glyph d="M119.5 -252.5q-23.5 28.5 -23.5 68.5q0 15 3 30l75 278q9 37 42 59.5t72 24.5q28 0 54 -16t42.5 -42t16.5 -56q0 -21 -11 -46l-109 -259q-33 -69 -95 -71q-43 1 -66.5 29.5zM226.5 737q-31.5 19 -50.5 50.5t-19 68.5t19 69t50.5 50.5t68.5 18.5t68.5 -18.5t50 -50.5 t18.5 -69t-18.5 -68.5t-50 -50.5t-68.5 -19t-68.5 19z" glyph-name="semicolon" horiz-adv-x="525" unicode=";"/>
<glyph d="M735 205q0 -25 -15 -55q-28 -54 -72 -54q-26 0 -52 16l-480 273q-64 37 -64 85q0 60 51 88l492 277q26 15 50 15q45 0 76 -52q16 -29 16 -55q0 -45 -52 -72l-380 -198l376 -196q54 -24 54 -72z" glyph-name="less" horiz-adv-x="816" unicode="&lt;"/>
<glyph d="M714 820q57 0 87 -29.5t30 -85.5q0 -50 -30 -76t-87 -26h-524q-57 0 -86 26.5t-29 77.5q0 56 29 84.5t86 28.5h524zM714 377q57 0 87 -27.5t30 -79.5q0 -54 -30 -82t-87 -28h-524q-57 0 -86 28t-29 83q0 106 115 106h524z" glyph-name="equal" horiz-adv-x="897" unicode="="/>
<glyph d="M764 470q0 -48 -64 -85l-480 -273q-26 -16 -52 -16q-43 0 -72 54q-15 30 -15 55q0 48 54 72l376 196l-380 198q-52 27 -52 72q0 26 16 55q31 52 76 52q25 0 50 -15l492 -277q51 -28 51 -88z" glyph-name="greater" horiz-adv-x="816" unicode="&gt;"/>
<glyph d="M287 396q-29 25 -29 68q3 63 31 112t69.5 86.5t112.5 89.5q58 46 88 73.5t49 58t19 65.5v12q0 64 -49.5 100.5t-124.5 36.5q-67 0 -118.5 -21.5t-102.5 -71.5q-5 -5 -21.5 -19t-32 -21.5t-32.5 -7.5q-45 0 -75 30.5t-30 77.5q0 22 8 45t26 41q70 76 167 126.5t220 50.5 q109 0 199.5 -44t143 -123.5t52.5 -181.5v-19q0 -75 -31.5 -134.5t-79.5 -105.5t-135 -115q-55 -44 -90.5 -82.5t-55.5 -86.5q-17 -29 -40 -47t-59 -18q-50 0 -79 25zM239 195q19 32 50.5 50.5t68.5 18.5t68.5 -18.5t50 -50.5t18.5 -69t-18.5 -68.5t-50 -50.5t-68.5 -19 t-68.5 19t-50.5 50.5t-19 68.5t19 69z" glyph-name="question" horiz-adv-x="905" unicode="?"/>
<glyph d="M876 1261q116 -67 181 -176.5t65 -232.5v-651q0 -48 -22 -73t-65 -25q-81 0 -81 64v48q-8 -26 -30 -53.5t-59 -47t-86 -19.5q-70 0 -134.5 42t-104.5 112t-40 151v152q0 82 42 152t113.5 111t155.5 41q57 0 106 -18q-17 133 -90 195.5t-202 62.5q-77 0 -142.5 -34.5 t-105 -101.5t-39.5 -161v-610q0 -74 37.5 -132t99.5 -89.5t133 -31.5q58 0 88 -28t30 -83q0 -120 -128 -120q-134 0 -246 66.5t-177 175.5t-65 231v674q0 124 65 233.5t180 176t259 66.5q146 0 262 -67zM922 554q0 43 -32.5 75.5t-78.5 32.5t-78.5 -32.5t-32.5 -75.5v-158 q0 -27 15 -52t40.5 -40t55.5 -15t55.5 15t40.5 40t15 52v158z" glyph-name="at" horiz-adv-x="1219" unicode="@"/>
<glyph d="M1058 99q0 -45 -31 -75.5t-89 -30.5q-35 0 -63.5 15.5t-37.5 47.5l-69 225h-452l-69 -225q-9 -32 -38 -47.5t-65 -15.5q-53 0 -85.5 30.5t-32.5 76.5q0 23 9 48l398 1106q12 32 40.5 47.5t69.5 15.5q40 0 68.5 -15.5t40.5 -46.5l397 -1107q9 -24 9 -49zM700 505l-157 512 l-158 -512h315z" glyph-name="A" horiz-adv-x="1084" unicode="A"/>
<glyph d="M994.5 601.5q49.5 -78.5 49.5 -199.5q0 -199 -103 -300.5t-319 -101.5h-335q-56 0 -85.5 29t-29.5 85v1083q0 56 29.5 84.5t85.5 28.5h293q201 0 296.5 -83t95.5 -254q0 -176 -138 -256q111 -37 160.5 -115.5zM402 786h181q80 0 118.5 40.5t38.5 114.5q0 77 -38.5 114 t-121.5 37h-178v-306zM762.5 266.5q50.5 48.5 50.5 147.5q0 76 -50.5 127t-147.5 51h-213v-374h206q104 0 154.5 48.5z" glyph-name="B" horiz-adv-x="1122" unicode="B"/>
<glyph d="M749 14q-80 -32 -196 -32q-130 0 -234.5 63.5t-163.5 170t-59 230.5v417q0 125 58 232t162.5 170t236.5 63q104 0 184 -28t164 -92q47 -35 47 -88q0 -30 -15.5 -57t-41 -43.5t-53.5 -16.5q-20 0 -40 7.5t-47 24.5q-46 31 -92.5 46.5t-108.5 15.5t-112.5 -28.5 t-80.5 -83.5t-30 -130v-399q0 -77 30.5 -132t82 -83t113.5 -28q58 0 106 16t93 46q50 32 86 32q28 0 53.5 -16.5t41 -43.5t15.5 -57q0 -52 -47 -88q-72 -56 -152 -88z" glyph-name="C" horiz-adv-x="1016" unicode="C"/>
<glyph d="M817.5 1246.5q110.5 -63.5 172.5 -169.5t62 -230v-390q0 -122 -61.5 -226.5t-171 -167t-245.5 -63.5h-7h-5h-275q-56 0 -85.5 29t-29.5 85v1083q0 56 29.5 84.5t85.5 28.5h279h1q140 0 250.5 -63.5zM820 846q0 68 -34.5 121t-92.5 82.5t-126 29.5h-1h-163v-848h163h1 q70 0 127.5 28t91.5 80.5t34 121.5v385z" glyph-name="D" horiz-adv-x="1147" unicode="D"/>
<glyph d="M277 0q-52 0 -78.5 29t-26.5 85v1081q0 57 29.5 86t85.5 29h546q56 0 85 -29t29 -86t-29 -86.5t-85 -29.5h-430v-300h320q57 0 86 -28t29 -82q0 -53 -29 -80.5t-86 -27.5h-320v-330h430q56 0 85 -29.5t29 -87.5q0 -56 -29 -85t-85 -29h-556z" glyph-name="E" horiz-adv-x="1021" unicode="E"/>
<glyph d="M837 1310q55 0 84 -29t29 -86t-28.5 -86.5t-84.5 -29.5h-434v-356h310q57 0 86 -28.5t29 -82.5q0 -106 -115 -106h-310v-399q0 -56 -29.5 -85t-86.5 -29q-56 0 -85.5 29t-29.5 85v1093q2 54 33.5 82t92.5 28h539z" glyph-name="F" horiz-adv-x="987" unicode="F"/>
<glyph d="M963.5 697q29.5 -29 29.5 -86v-389q0 -103 -60 -137q-83 -46 -168.5 -74.5t-203.5 -28.5q-134 0 -240 62.5t-165.5 168.5t-59.5 231v418q0 125 57.5 232t162.5 170.5t243 63.5q77 0 138.5 -17t102.5 -39.5t90 -56.5q57 -39 57 -95q0 -30 -16 -57t-41.5 -43.5t-51.5 -16.5 q-38 0 -89 32q-46 29 -88 45.5t-102 16.5q-66 0 -119 -29.5t-83 -83t-30 -122.5v-412q0 -110 64.5 -173.5t176.5 -63.5q66 0 112.5 12.5t96.5 33.5v244h-142q-56 0 -85 29t-29 85q0 53 29 81t85 28h242q57 0 86.5 -29z" glyph-name="G" horiz-adv-x="1090" unicode="G"/>
<glyph d="M1041 1288q29 -29 29 -84v-1097q0 -56 -29.5 -85t-85.5 -29q-57 0 -87 29t-30 85v430h-435v-430q0 -56 -30 -85t-86 -29t-85.5 29t-29.5 85v1097q0 55 29.5 84t85.5 29t86 -29t30 -84v-436h435v436q0 55 30 84t88 29q56 0 85 -29z" glyph-name="H" horiz-adv-x="1241" unicode="H"/>
<glyph d="M403 107q0 -56 -30 -85t-86 -29t-85.5 29t-29.5 85v1097q0 56 29.5 84.5t85.5 28.5q57 0 86.5 -28.5t29.5 -84.5v-1097z" glyph-name="I" horiz-adv-x="575" unicode="I"/>
<glyph d="M985 1202v-6v-758q0 -124 -56 -228.5t-159.5 -166t-239.5 -61.5q-126 0 -225 62t-154.5 167t-55.5 227v47q0 55 29 83t86 28q53 0 81 -28t28 -83v-29q0 -77 29 -132t78.5 -83t109.5 -28q61 0 110 28t78 83t29 132v630h-374q-59 0 -89.5 28t-30.5 82q0 56 31 85t89 29h493 q55 0 84 -25.5t29 -75.5v-7z" glyph-name="J" horiz-adv-x="1114" unicode="J"/>
<glyph d="M1076 93q0 -42 -32.5 -71t-80.5 -29q-40 0 -66 15.5t-47 51.5l-296 527l-151 -175v-312q0 -56 -29.5 -85t-85.5 -29q-57 0 -86.5 29t-29.5 85v1105q0 56 29.5 84.5t86.5 28.5q56 0 85.5 -29t29.5 -84v-444l455 531q16 18 33.5 25t40.5 7q57 0 89 -31.5t32 -77.5 q0 -51 -35 -90l-305 -353l344 -616q19 -32 19 -63z" glyph-name="K" horiz-adv-x="1138" unicode="K"/>
<glyph d="M925.5 201q29.5 -30 29.5 -88t-29.5 -86.5t-85.5 -26.5h-553q-57 0 -86 34t-29 99v1071q0 56 29 85t86 29t86.5 -29t29.5 -85v-973h437q56 0 85.5 -30z" glyph-name="L" horiz-adv-x="998" unicode="L"/>
<glyph d="M1282 1294q34 -27 34 -74v-1117q0 -56 -29.5 -84.5t-86.5 -28.5q-56 0 -85.5 29t-29.5 84v799l-256 -358q-21 -28 -40.5 -40.5t-44.5 -12.5q-47 0 -85 52l-256 358v-798q0 -56 -29.5 -84.5t-86.5 -28.5q-56 0 -85.5 29t-29.5 84v1117q0 53 33 77t84 24q55 0 89 -44 l366 -491l366 490q22 29 43 37t44 8q51 0 85 -27z" glyph-name="M" horiz-adv-x="1488" unicode="M"/>
<glyph d="M1085 1292q29 -30 29 -87v-1118q0 -47 -28.5 -72t-72.5 -25q-71 0 -100 46l-510 803v-731q0 -58 -29.5 -88t-86.5 -30q-115 0 -115 118v1107q0 46 32 76.5t80 30.5q67 0 98 -47l500 -785v715q0 57 30 87t88 30q56 0 85 -30z" glyph-name="N" horiz-adv-x="1286" unicode="N"/>
<glyph d="M96 870q0 123 59 228t165.5 167.5t240.5 62.5q135 0 242 -62.5t166.5 -167.5t59.5 -228v-432q0 -123 -60.5 -227.5t-167.5 -166.5t-240 -62t-239 62t-166 167t-60 227v432zM327 449q0 -74 31.5 -127.5t85 -81t117.5 -27.5q66 0 119.5 27.5t85 81t31.5 127.5v412 q0 73 -32 126.5t-85.5 81.5t-118.5 28q-64 0 -117.5 -28t-85 -81.5t-31.5 -126.5v-412z" glyph-name="O" horiz-adv-x="1125" unicode="O"/>
<glyph d="M565 1310q131 0 233 -50.5t160.5 -153t58.5 -252.5v-31q0 -146 -58.5 -247t-160.5 -152t-233 -51h-162v-255q0 -60 -30 -92.5t-86 -32.5q-57 0 -86 29t-29 85v1088q0 57 29.5 86t85.5 29h278zM403 1079v-483h147q80 0 131.5 21.5t77.5 72t26 137.5v28q0 117 -58.5 170.5 t-175.5 53.5h-148z" glyph-name="P" horiz-adv-x="1074" unicode="P"/>
<glyph d="M960 -85q35 0 54.5 -27t19.5 -69q0 -37 -20.5 -63.5t-47.5 -36.5q-49 -18 -94.5 -25t-97.5 -8q-137 0 -227 81t-111 231q-101 26 -178 91t-119.5 156t-42.5 193v432q0 123 59 228t165.5 167.5t240.5 62.5q135 0 242 -62.5t166.5 -167.5t59.5 -228v-432q0 -107 -46 -200.5 t-129.5 -158.5t-190.5 -87q10 -55 42.5 -81.5t80.5 -26.5q43 0 72 6t77 22q14 3 25 3zM358.5 321.5q31.5 -53.5 85 -81t117.5 -27.5q66 0 119.5 27.5t85 81t31.5 127.5v412q0 73 -32 126.5t-85.5 81.5t-118.5 28q-64 0 -117.5 -28t-85 -81.5t-31.5 -126.5v-412 q0 -74 31.5 -127.5z" glyph-name="Q" horiz-adv-x="1125" unicode="Q"/>
<glyph d="M968.5 689q-48.5 -85 -129.5 -143q49 -34 81.5 -81t42.5 -105l42 -229q3 -18 3 -34q0 -54 -29 -82.5t-86 -28.5q-45 0 -73 24t-36 69l-51 248q-13 58 -58 92t-113 35h-159v-347q0 -56 -30 -85t-86 -29q-57 0 -86 29t-29 85v1088q0 57 29.5 86t85.5 29h255 q219 0 347 -103.5t128 -322.5v-4q0 -106 -48.5 -191zM585 669q54 0 100 24t73 68t27 103v14q0 201 -221 201h-161v-410h182z" glyph-name="R" horiz-adv-x="1120" unicode="R"/>
<glyph d="M143.5 1155q55.5 85 148 129t200.5 44q101 0 185 -28.5t171 -94.5q41 -30 41 -79q0 -29 -15 -56.5t-40 -44.5t-55 -17q-19 0 -36.5 7t-46.5 24q-48 33 -97.5 47.5t-106.5 14.5q-74 0 -124 -36.5t-50 -102.5q0 -37 21.5 -63.5t55 -45.5t97.5 -48q32 -13 59 -27 q128 -63 197.5 -107.5t117 -119t47.5 -188.5q0 -107 -56.5 -194t-156 -137t-222.5 -50q-178 0 -354 113q-57 35 -57 93q0 31 16 60t41 47t50 18q18 0 33.5 -5t44.5 -22q52 -33 110.5 -53t132.5 -20q53 0 96 19t67.5 52t24.5 74q0 50 -30 87t-80 65t-144 71q-104 46 -176 93 t-118.5 116.5t-46.5 163.5q0 116 55.5 201z" glyph-name="S" horiz-adv-x="981" unicode="S"/>
<glyph d="M912 1281q29 -29 29 -86t-29 -86.5t-85 -29.5h-233v-969q0 -58 -29 -87.5t-86 -29.5t-86.5 28.5t-29.5 84.5v973h-234q-113 0 -113 118q0 56 28.5 84.5t84.5 28.5h698q56 0 85 -29z" glyph-name="T" horiz-adv-x="957" unicode="T"/>
<glyph d="M358.5 44.5q-104.5 62.5 -167 168t-62.5 225.5v765q0 56 29 85t86 29t86.5 -29t29.5 -85v-754q0 -74 30 -127.5t82 -81t116 -27.5q65 0 116 27.5t80 80.5t29 128v754q0 56 30 85t87 29q56 0 85.5 -29t29.5 -85v-765q0 -124 -58 -228.5t-163 -166t-241 -61.5 q-120 0 -224.5 62.5z" glyph-name="U" horiz-adv-x="1173" unicode="U"/>
<glyph d="M963 1303q27 -15 44 -40.5t17 -56.5q0 -20 -7 -40l-385 -1105q-15 -43 -42.5 -61t-67.5 -18q-44 0 -70.5 19.5t-40.5 59.5l-384 1106q-7 21 -7 42q0 47 35 78t82 31q35 0 63.5 -19t38.5 -51l283 -890l281 890q10 31 38.5 50.5t64.5 19.5q30 0 57 -15z" glyph-name="V" horiz-adv-x="1043" unicode="V"/>
<glyph d="M1468 1287.5q33 -30.5 33 -79.5q0 -18 -4 -34l-261 -1081q-14 -61 -44.5 -86t-81.5 -25q-48 0 -85.5 25t-51.5 84l-213 855l-213 -856q-14 -59 -51 -83.5t-86 -24.5q-50 0 -80.5 25t-44.5 87l-261 1080q-4 16 -4 35q0 49 32.5 79t81.5 30q38 0 70 -25t42 -78l177 -823 l201 806q14 59 49 89.5t87 30.5q53 0 88 -30t49 -89l200 -807l177 823q10 53 42 78t70 25q49 0 82 -30.5z" glyph-name="W" horiz-adv-x="1521" unicode="W"/>
<glyph d="M981 104q0 -47 -35 -78.5t-85 -31.5q-23 0 -44 10t-34 29l-266 414l-267 -414q-14 -20 -35 -30t-46 -9q-50 0 -84.5 32t-34.5 79q0 37 25 75l308 479l-300 470q-27 39 -27 77q0 45 33.5 76.5t82.5 32.5q24 2 46.5 -8.5t36.5 -30.5l261 -405l261 405q15 20 37.5 30t46.5 9 q50 0 81.5 -31.5t31.5 -78.5q0 -40 -24 -77l-301 -470l306 -478q26 -38 26 -76z" glyph-name="X" horiz-adv-x="1032" unicode="X"/>
<glyph d="M978.5 1282.5q32.5 -34.5 32.5 -82.5q0 -35 -21 -71l-361 -604v-418q0 -56 -29.5 -85t-86.5 -29t-86.5 29t-29.5 85v417l-362 605q-21 34 -21 72q0 48 32.5 82t78.5 34q29 0 54 -14t41 -43l293 -530l292 530q16 29 40.5 43t54.5 14q46 0 78.5 -34.5z" glyph-name="Y" horiz-adv-x="1025" unicode="Y"/>
<glyph d="M924.5 201.5q28.5 -29.5 28.5 -86.5q0 -56 -29 -85.5t-84 -29.5h-677q-47 0 -74.5 32.5t-27.5 82.5q0 34 25 76l522 888h-417q-56 0 -85 29.5t-29 86.5q0 56 30 85.5t88 29.5h628q46 0 73 -33.5t27 -81.5q0 -39 -26 -79l-531 -885h474q56 0 84.5 -29.5z" glyph-name="Z" horiz-adv-x="997" unicode="Z"/>
<glyph d="M578 -84.5q30 -28.5 30 -82.5q0 -58 -30 -88.5t-86 -30.5h-243q-56 0 -86 30.5t-30 88.5v1419q0 58 30 88t86 30h241q57 0 87 -31t30 -90q0 -54 -30 -81.5t-87 -27.5h-127v-1196h129q56 0 86 -28.5z" glyph-name="bracketleft" horiz-adv-x="643" unicode="["/>
<glyph d="M41 1209q0 49 37 78.5t89 29.5q38 0 68.5 -23t43.5 -66l348 -1090q6 -18 6 -35q0 -46 -36 -74.5t-84 -28.5q-38 0 -70.5 22t-44.5 59l-350 1086q-7 21 -7 42z" glyph-name="backslash" horiz-adv-x="674" unicode="\"/>
<glyph d="M280 -56v1196h-127q-57 0 -86.5 27.5t-29.5 81.5q0 59 29.5 90t86.5 31h241q57 0 86.5 -30t29.5 -88v-1419q0 -58 -29.5 -88.5t-86.5 -30.5h-242q-57 0 -87 30.5t-30 88.5q0 54 30 82.5t87 28.5h128z" glyph-name="bracketright" horiz-adv-x="644" unicode="]"/>
<glyph d="M757 854q0 -41 -31 -70t-75 -29q-23 0 -44.5 11t-34.5 31l-171 250l-177 -249q-14 -19 -34.5 -30.5t-43.5 -11.5q-44 0 -75 29t-31 69q0 31 18 56l260 372q15 21 37 32.5t47 11.5q23 0 46 -10t38 -32l252 -371q19 -29 19 -59z" glyph-name="asciicircum" horiz-adv-x="790" unicode="^"/>
<glyph d="M930 -69q62 0 94 -27.5t32 -79.5q0 -54 -32 -82t-94 -28h-808q-60 0 -91 28t-31 82q0 53 31 80t91 27h808z" glyph-name="underscore" horiz-adv-x="1056" unicode="_"/>
<glyph d="M90 1307q0 27 15 51.5t38.5 40t48.5 15.5q27 0 46 -9t35 -42l85 -139q11 -22 11 -45q0 -35 -23 -59.5t-61 -24.5q-37 0 -65 29l-105 121q-25 28 -25 62z" glyph-name="grave" horiz-adv-x="510" unicode="`"/>
<glyph d="M666.5 944q81.5 -45 123.5 -126.5t42 -191.5v-478q0 -35 -6.5 -54t-25.5 -33.5t-59 -30.5q-58 -23 -145.5 -35.5t-185.5 -12.5q-99 0 -175 35t-118 100.5t-42 154.5v6q0 155 93 232t248 77q60 0 105.5 -7t94.5 -20v54q0 81 -43.5 122t-118.5 41q-78 0 -152 -25 q-24 -6 -21 -5q-30 -6 -45 -6q-23 0 -43 15t-32 38.5t-12 46.5q0 35 15 60t53 41q43 20 109.5 33.5t141.5 13.5q117 0 198.5 -45zM616 191v199q-89 19 -168 19q-156 0 -156 -117v-2q0 -58 37.5 -91.5t108.5 -33.5q96 0 178 26z" glyph-name="a" horiz-adv-x="956" unicode="a"/>
<glyph d="M758 938q85 -51 131 -136t46 -184v-253q0 -110 -52.5 -197.5t-142.5 -136.5t-199 -49q-154 0 -307 51q-36 12 -54 25t-25 32t-7 51v1102q0 53 27.5 80t80.5 27q108 0 108 -107v-238l-16 -48q35 13 93.5 22.5t120.5 9.5q111 0 196 -51zM719 611q0 49 -23.5 86.5t-64.5 58 t-91 20.5q-54 0 -91.5 -6.5t-58.5 -12.5t-26 -7v-530q9 -2 36.5 -9.5t62.5 -12t77 -4.5q50 0 91 21t64.5 59t23.5 87v250z" glyph-name="b" horiz-adv-x="1034" unicode="b"/>
<glyph d="M149.5 803.5q50.5 85.5 142 135.5t207.5 50q85 0 150 -23t112 -57q21 -16 31.5 -37t10.5 -43q0 -39 -25.5 -70t-57.5 -31q-21 -1 -33.5 1.5t-24.5 6t-20 5.5q-34 15 -69 25t-84 10q-48 0 -88 -21t-63 -58.5t-23 -85.5v-252q0 -47 23 -85t62.5 -59t88.5 -21t85 10t68 26 q4 1 18 5t28 5.5t32 1.5q32 0 57.5 -31t25.5 -70q0 -48 -42 -79q-52 -37 -112 -58.5t-158 -21.5q-114 0 -203 50.5t-139 135.5t-50 186v262q0 102 50.5 187.5z" glyph-name="c" horiz-adv-x="874" unicode="c"/>
<glyph d="M592.5 979.5q58.5 -9.5 93.5 -22.5l-16 48v238q0 107 108 107q53 0 80.5 -27t27.5 -80v-1102q0 -32 -7 -51t-25 -32t-54 -25q-153 -51 -307 -51q-109 0 -199 49t-142.5 136.5t-52.5 197.5v253q0 99 46 184t131 136t196 51q62 0 120.5 -9.5zM338.5 274q23.5 -38 64.5 -59 t91 -21t85.5 6t58.5 12t32 8v530q-5 1 -31.5 8.5t-64.5 12.5t-80 5q-50 0 -91 -20.5t-64.5 -58t-23.5 -86.5v-250q0 -49 23.5 -87z" glyph-name="d" horiz-adv-x="1034" unicode="d"/>
<glyph d="M695 935.5q90 -53.5 140.5 -142.5t50.5 -190v-101q0 -43 -25.5 -71.5t-71.5 -28.5h-481v-33q0 -47 23 -89.5t65.5 -68.5t96.5 -26q67 0 144 36q13 5 22 10q14 7 23 10t22 3q46 0 73 -31.5t27 -73.5q0 -25 -10.5 -46.5t-30.5 -35.5q-46 -31 -118 -53t-154 -22 q-113 0 -202.5 51t-139.5 135.5t-50 179.5v267q0 102 49.5 187.5t139 136t203.5 50.5t204 -53.5zM398 776q-42 -22 -66 -62.5t-24 -92.5v-41h368v42q0 51 -24.5 91.5t-67 62.5t-93.5 22t-93 -22z" glyph-name="e" horiz-adv-x="944" unicode="e"/>
<glyph d="M399.5 1136.5q-29.5 -22.5 -29.5 -64.5q0 -27 13 -59l17 -43h135q50 0 76 -26t26 -76t-26 -76t-76 -26h-128v-800q0 -83 -28 -151t-87 -109t-148 -41q-30 0 -53.5 2.5t-59.5 10.5q-42 10 -65.5 33t-23.5 68q0 51 30 75.5t74 22.5q51 -8 72 -8q73 0 73 116v781h-32 q-49 1 -74.5 26.5t-25.5 75.5q0 49 25.5 75t74.5 27h32l-15 40q-23 58 -23 115q0 68 33.5 122t95 84t143.5 30q60 0 108 -6.5t93 -21.5q43 -14 62.5 -35.5t19.5 -67.5q0 -44 -24.5 -70.5t-62.5 -26.5q-9 0 -27 4q-34 11 -59.5 16.5t-57.5 5.5q-48 0 -77.5 -22.5z" glyph-name="f" horiz-adv-x="667" unicode="f"/>
<glyph d="M294 -225q0 49 25 76.5t71 27.5q13 0 20 -1q56 -11 120 -11q81 0 117.5 53.5t36.5 164.5l16 18q-6 -3 -36.5 -22.5t-85.5 -36t-120 -16.5q-92 0 -175 53t-133.5 145t-50.5 202v178q0 111 47.5 198t132.5 136t193 49q102 0 183 -13.5t162 -43.5q40 -15 54.5 -36t14.5 -68 v-772q0 -117 -41 -206.5t-115 -138.5t-171 -49q-87 0 -166 15q-99 16 -99 98zM596.5 254q38.5 14 72.5 35v461q-48 14 -81.5 20t-94.5 6q-51 0 -91 -22.5t-63.5 -66t-23.5 -102.5v-150q0 -89 48 -142t130 -53q65 0 103.5 14z" glyph-name="g" horiz-adv-x="1024" unicode="g"/>
<glyph d="M755 940q85 -49 132.5 -134t47.5 -190v-513q0 -54 -28 -82t-82 -28q-52 0 -79 28t-27 82v510q0 47 -23.5 84t-64.5 58t-91 21q-51 0 -86 -6t-58.5 -12t-31.5 -8v-647q0 -54 -26.5 -82t-77.5 -28q-55 0 -83.5 28t-28.5 82v1140q0 53 27.5 80t80.5 27q108 0 108 -107v-235 l-16 -52q44 16 101 24.5t112 8.5q109 0 194 -49z" glyph-name="h" horiz-adv-x="1060" unicode="h"/>
<glyph d="M418 863v-763q0 -53 -27.5 -80t-80.5 -27t-80.5 27t-27.5 80v666h-60q-101 0 -101 102t101 102h168q80 0 101 -61q7 -18 7 -46zM196 1153.5q-35 34.5 -35 82.5q0 31 16 58.5t43.5 43.5t58.5 16q48 0 82 -35t34 -83t-34 -82.5t-82 -34.5t-83 34.5z" glyph-name="i" horiz-adv-x="556" unicode="i"/>
<glyph d="M418 863v-864q0 -159 -74 -248t-213 -89q-30 0 -50 2t-53 9q-50 9 -74 30t-24 66q0 48 23 78.5t66 30.5q11 0 16 -1l28 -4q30 -6 50 -6q45 0 67 34.5t22 107.5v757h-60q-101 0 -101 102t101 102h168q80 0 101 -61q7 -18 7 -46zM207 1155.5q-35 34.5 -35 82.5 q0 31 16 58.5t43.5 43.5t58.5 16q48 0 82 -35t34 -83t-34 -82.5t-82 -34.5t-83 34.5z" glyph-name="j" horiz-adv-x="556" unicode="j"/>
<glyph d="M908.5 150.5q8.5 -22.5 8.5 -52.5q0 -24 -13.5 -47t-38.5 -37.5t-57 -14.5q-22 0 -41.5 11t-42.5 37l-221 280l-42 -15l-97 -33v-179q0 -45 -31 -76t-77 -31t-77 31t-31 76v1143q0 45 31 76t77 31t77 -31t31 -76v-370q60 55 134 85.5t155 30.5q69 0 127.5 -30t93.5 -84.5 t35 -126.5q0 -101 -52.5 -182t-160.5 -147l187 -226q17 -20 25.5 -42.5zM479 542q106 41 159 76t53 78q0 32 -22.5 49.5t-64.5 17.5q-53 0 -109 -31.5t-93.5 -89t-37.5 -130.5v-18z" glyph-name="k" horiz-adv-x="987" unicode="k"/>
<glyph d="M408 1236v-1136q0 -53 -27.5 -80t-80.5 -27t-81 27.5t-28 79.5v1027h-43q-53 0 -80 27.5t-27 80.5q0 108 107 108h152q21 0 41 -5q67 -18 67 -102z" glyph-name="l" horiz-adv-x="546" unicode="l"/>
<glyph d="M1246.5 943.5q80.5 -45.5 125.5 -127.5t45 -186v-527q0 -54 -28 -82t-83 -28q-52 0 -79 28.5t-27 81.5v508q0 75 -45 120t-113 45q-85 0 -167 -58q11 -49 11 -99v-516q0 -53 -28 -81.5t-83 -28.5q-52 0 -79 28t-27 82v511q0 75 -45 118.5t-113 43.5q-46 0 -81.5 -7 t-75.5 -19v-647q0 -54 -26.5 -82t-77.5 -28q-55 0 -83.5 28t-28.5 82v742q0 64 63 84q78 26 158 43t173 17q68 0 127 -20.5t104 -59.5q66 35 144 57.5t156 22.5q103 0 183.5 -45.5z" glyph-name="m" horiz-adv-x="1541" unicode="m"/>
<glyph d="M750.5 942.5q83.5 -46.5 129 -131t45.5 -195.5v-513q0 -54 -28 -82t-82 -28q-52 0 -79 28t-27 82v501q0 84 -47 128t-125 44q-95 0 -183 -26v-647q0 -54 -26.5 -82t-77.5 -28q-55 0 -83.5 28t-28.5 82v741q0 28 12 49t33 30q74 31 169 48.5t205 17.5t193.5 -46.5z" glyph-name="n" horiz-adv-x="1050" unicode="n"/>
<glyph d="M99 618q0 104 52 189t142 133.5t199 48.5t199 -48.5t142.5 -133.5t52.5 -189v-267q0 -103 -52.5 -187.5t-143 -133t-198.5 -48.5q-109 0 -199 48.5t-142 133t-52 187.5v267zM315 360q0 -49 23.5 -87t63.5 -58.5t90 -20.5t90.5 20.5t64 58.5t23.5 87v249q0 49 -23.5 87 t-64 59t-90.5 21q-49 0 -89.5 -21t-64 -59t-23.5 -87v-249z" glyph-name="o" horiz-adv-x="985" unicode="o"/>
<glyph d="M338 14l16 -49v-200q0 -107 -108 -107q-53 0 -80.5 27t-27.5 80v1064q0 33 7 52t25 32t54 25q68 23 156.5 37t171.5 14q108 0 193 -48t132.5 -132.5t47.5 -188.5v-268q0 -98 -51 -183t-141 -136t-202 -51q-111 0 -193 32zM685.5 696q-23.5 38 -64.5 59t-91 21t-85.5 -6 t-58.5 -12t-32 -8v-530q8 -2 35 -9t63.5 -12t77.5 -5q50 0 91 20.5t64.5 58t23.5 86.5v250q0 49 -23.5 87z" glyph-name="p" horiz-adv-x="1024" unicode="p"/>
<glyph d="M291 33q-90 51 -141 136t-51 183v268q0 104 48 188.5t133 132.5t193 48q82 0 170 -14t157 -37q36 -12 54 -25t25 -32t7 -52v-1064q0 -53 -27.5 -80t-80.5 -27q-54 0 -81.5 27t-27.5 80v200l17 49q-82 -32 -193 -32q-112 0 -202 51zM315 359q0 -49 23.5 -86.5t64 -58 t90.5 -20.5q52 0 88.5 6t58.5 12t29 8v530q-9 2 -36 9.5t-62.5 12t-77.5 4.5q-49 0 -90 -21t-64.5 -59t-23.5 -87v-250z" glyph-name="q" horiz-adv-x="1024" unicode="q"/>
<glyph d="M496 776q-39 0 -77 -13.5t-65 -36.5v-623q0 -54 -26.5 -82t-77.5 -28q-55 0 -83.5 28t-28.5 82v719q0 25 16 46.5t42 36.5q60 39 142.5 61.5t158.5 22.5q46 0 92.5 -6.5t77.5 -17.5q31 -12 46.5 -36.5t15.5 -58.5q0 -111 -109 -109q-92 15 -124 15z" glyph-name="r" horiz-adv-x="757" unicode="r"/>
<glyph d="M223.5 469q-52.5 30 -90.5 88.5t-38 153.5q0 82 42 145t113.5 97.5t158.5 34.5q72 0 132 -15t119 -44q31 -14 47 -40.5t16 -56.5q0 -40 -27.5 -70.5t-69.5 -30.5q-19 0 -44 8t-34 11q-37 12 -66 19t-70 7q-42 0 -69.5 -19.5t-27.5 -58.5q0 -26 13 -44t45 -35t96 -40 q96 -35 152 -69.5t85.5 -86t29.5 -129.5q0 -96 -44 -166.5t-119 -107.5t-167 -37q-130 0 -265 61q-83 34 -83 102q0 45 29.5 74t71.5 29q16 0 36.5 -5.5t38 -11t23.5 -7.5q36 -14 72 -22.5t82 -8.5q48 0 77.5 24t29.5 66q0 29 -15 47.5t-41.5 32t-82.5 35.5l-20 8 q-83 32 -135.5 62z" glyph-name="s" horiz-adv-x="799" unicode="s"/>
<glyph d="M376 1200v-230h165q50 0 76.5 -26t26.5 -76t-26.5 -76t-76.5 -26h-165v-463q0 -52 23.5 -81t69.5 -29q35 0 77 8q5 1 11.5 2t14.5 2q16 2 22 2q44 0 70 -28t26 -76q0 -47 -27 -71.5t-85 -34.5q-32 -6 -63 -10.5t-61 -4.5q-144 0 -219 77t-75 225v482h-32q-44 1 -68.5 27 t-24.5 75t24 75t69 27h32v230q0 107 108 107t108 -107z" glyph-name="t" horiz-adv-x="733" unicode="t"/>
<glyph d="M305 29.5q-85 47.5 -132.5 132.5t-47.5 193v512q0 54 28 82t82 28q52 0 79 -28t27 -82v-507q0 -50 23.5 -87.5t64 -58t91.5 -20.5q54 0 94.5 7t81.5 19v647q0 54 26.5 82t77.5 28q55 0 83.5 -28t28.5 -82v-741q0 -28 -12 -49t-33 -30q-155 -65 -368 -65q-109 0 -194 47.5 z" glyph-name="u" horiz-adv-x="1050" unicode="u"/>
<glyph d="M805.5 948.5q32.5 -28.5 32.5 -73.5q0 -22 -9 -48l-283 -768q-13 -33 -41.5 -51.5t-64.5 -18.5q-34 0 -63 18t-42 52l-283 769q-9 26 -9 47q0 45 33 73.5t78 28.5q74 0 93 -62l194 -599l193 599q10 31 33.5 46.5t56.5 15.5q49 0 81.5 -28.5z" glyph-name="v" horiz-adv-x="881" unicode="v"/>
<glyph d="M1268 949q34 -28 34 -75q0 -18 -6 -39l-217 -743q-16 -52 -50.5 -77.5t-78.5 -25.5q-46 0 -80 23t-46 71l-152 582l-153 -582q-11 -47 -45.5 -70.5t-79.5 -23.5q-44 0 -79 26t-50 77l-217 743q-6 21 -6 39q0 48 34 75.5t83 27.5q71 0 91 -79l162 -609l147 608 q10 45 42 66t71 21q40 0 71.5 -20.5t41.5 -68.5l147 -606l162 609q20 79 90 79q50 0 84 -28z" glyph-name="w" horiz-adv-x="1344" unicode="w"/>
<glyph d="M799 156q19 -28 19 -59q0 -42 -31.5 -73t-76.5 -31q-26 0 -49.5 13.5t-39.5 36.5l-188 274l-189 -274q-37 -50 -88 -50q-44 0 -77 32t-33 75q0 29 18 56l239 350l-211 306q-19 28 -19 57q0 28 16 53t42.5 40t56.5 15q50 0 83 -50l177 -259l176 258q35 51 87 51 q44 0 77 -32t33 -76q0 -30 -17 -57l-228 -330z" glyph-name="x" horiz-adv-x="874" unicode="x"/>
<glyph d="M883.5 949q28.5 -28 28.5 -82v-819q0 -118 -40.5 -205t-114.5 -133.5t-173 -46.5q-101 0 -173 16q-105 20 -105 103q0 50 23 76t67 26q8 0 24 -2t24 -4q29 -4 56.5 -7t56.5 -3q75 0 112.5 41t41.5 136q-103 -23 -212 -23t-194 47.5t-132.5 132.5t-47.5 193v472 q0 54 28 82t82 28q52 0 79 -28t27 -82v-467q0 -50 23.5 -87.5t64 -58t91.5 -20.5q54 0 94.5 7t81.5 19v607q0 54 26.5 82t77.5 28q55 0 83.5 -28z" glyph-name="y" horiz-adv-x="1050" unicode="y"/>
<glyph d="M831 107q0 -53 -29.5 -80t-86.5 -27h-544q-48 0 -74 34t-26 76q0 21 8.5 43.5t21.5 40.5l406 563h-317q-55 0 -83.5 27t-28.5 80q0 52 28.5 79t83.5 27h523q47 0 73.5 -32t26.5 -79q0 -24 -9.5 -44t-25.5 -42l-401 -560h338q116 0 116 -106z" glyph-name="z" horiz-adv-x="878" unicode="z"/>
<glyph d="M736 -158q0 -114 -113 -114q-96 0 -174 42t-122.5 117t-44.5 171v224q0 64 -25 101.5t-79 47.5q-50 8 -76 37.5t-26 80.5q0 53 26 83t76 36q54 10 79 47.5t25 101.5v223q0 96 44 171t122 117t175 42q56 0 84.5 -28.5t28.5 -84.5q0 -114 -113 -114q-49 0 -80 -35.5 t-31 -86.5v-212q0 -78 -32.5 -146.5t-97.5 -113.5q66 -44 98 -114t32 -147v-210q0 -51 31 -86.5t80 -35.5q113 0 113 -114z" glyph-name="braceleft" horiz-adv-x="795" unicode="{"/>
<glyph d="M172 1194q0 57 29 87t84 30q58 0 87.5 -30t29.5 -87v-1341q0 -57 -29.5 -87t-87.5 -30q-55 0 -84 30t-29 87v1341z" glyph-name="bar" horiz-adv-x="574" unicode="|"/>
<glyph d="M693 632q26 -30 26 -83q0 -51 -26 -80.5t-76 -37.5q-54 -10 -79 -47.5t-25 -101.5v-224q0 -96 -44.5 -171t-122.5 -117t-174 -42q-113 0 -113 114t113 114q49 0 80 35.5t31 86.5v210q0 77 32 147t98 114q-65 45 -97.5 113.5t-32.5 146.5v212q0 51 -31 86.5t-80 35.5 q-113 0 -113 114q0 56 28.5 84.5t84.5 28.5q97 0 175 -42t122 -117t44 -171v-223q0 -129 104 -149q50 -6 76 -36z" glyph-name="braceright" horiz-adv-x="795" unicode="}"/>
<glyph d="M954 563q0 -48 -34 -82q-13 -22 -57 -57.5t-101 -62t-112 -26.5q-98 0 -180 71q-30 26 -53 39.5t-51 13.5q-29 0 -58 -21t-54 -57q-36 -33 -83 -33t-81 32q-16 16 -24.5 37.5t-8.5 43.5q0 23 8.5 44.5t24.5 37.5q14 23 56.5 58.5t99.5 62t112 26.5q51 0 94 -17.5 t84 -50.5q3 -3 23.5 -18.5t42.5 -26.5t40 -11q30 0 56.5 18.5t61.5 59.5q43 32 86 32q40 0 72 -29q36 -36 36 -84z" glyph-name="asciitilde" horiz-adv-x="990" unicode="~"/>
<glyph glyph-name="uni00A0" horiz-adv-x="461" unicode=" "/>
<glyph d="M378.5 970q31.5 -19 50 -50.5t18.5 -68.5t-18.5 -69t-50 -51t-68.5 -19t-68.5 19t-50.5 51t-19 69t19 68.5t50.5 50.5t68.5 19t68.5 -19zM395.5 553.5q29.5 -29.5 29.5 -87.5v-690q0 -57 -29 -87t-86 -30q-56 0 -85.5 30t-29.5 87v690q0 58 29 87.5t85 29.5 q57 0 86.5 -29.5z" glyph-name="exclamdown" horiz-adv-x="619" unicode="¡"/>
<glyph d="M777.5 211q25.5 -31 25.5 -70q0 -48 -42 -79q-34 -25 -70.5 -42.5t-86.5 -27.5v-98q0 -57 -28 -86.5t-81 -29.5t-80 29.5t-27 86.5v100q-87 21 -152.5 73.5t-101 127t-35.5 159.5v262q0 85 35.5 159t101 126.5t152.5 74.5v112q0 57 27.5 87t79.5 30q53 0 81 -29.5 t28 -87.5v-110q90 -19 157 -69q21 -16 31.5 -37t10.5 -43q0 -39 -25.5 -70t-57.5 -31q-21 -1 -33.5 1.5t-24.5 6t-20 5.5q-34 15 -69 25t-84 10q-48 0 -88 -21t-63 -58.5t-23 -85.5v-252q0 -47 23 -85t62.5 -59t88.5 -21t85 10t68 26q4 1 18 5t28 5.5t32 1.5q32 0 57.5 -31z " glyph-name="cent" horiz-adv-x="874" unicode="¢"/>
<glyph d="M938 199.5q29 -29.5 29 -86.5t-29 -86t-85 -27h-566q-56 0 -85.5 36t-29.5 97v415h-89q-34 0 -52 18.5t-18 53.5q0 67 70 67h89v167q0 129 49.5 236.5t147.5 172t235 64.5q81 0 139 -16.5t150 -59.5q33 -15 49.5 -40.5t16.5 -55.5q0 -29 -13 -56.5t-35 -45t-45 -17.5 q-14 0 -31.5 4t-37.5 10l-22 6q-62 26 -90 33t-74 7q-98 0 -153.5 -68t-55.5 -181v-160h235q35 0 53 -17.5t18 -51.5t-18 -52t-53 -18h-235v-319h451q56 0 85 -29.5z" glyph-name="sterling" horiz-adv-x="1010" unicode="£"/>
<glyph d="M92 254q0 30 24 58l78 85q-25 36 -38.5 80t-13.5 91q0 96 54 175l-76 83q-27 32 -27 62q0 38 38 70q30 27 60 27q37 0 68 -39l81 -89q58 30 122 30q65 0 122 -30l82 89q29 35 65 35q28 0 58 -21q45 -30 45 -69q0 -32 -29 -65l-76 -83q53 -79 53 -175q0 -95 -51 -171 l78 -87q22 -32 22 -61q0 -37 -37 -66q-30 -23 -60 -23q-36 0 -68 36l-80 88q-62 -30 -124 -30q-68 0 -123 30l-80 -88q-31 -39 -68 -39q-30 0 -59 26q-40 33 -40 71zM528 456.5q30 17.5 47.5 48t17.5 66.5t-17.5 66t-47.5 48t-66 18t-66.5 -17.5t-48 -48t-17.5 -66.5 t17.5 -66.5t48 -48t66.5 -17.5t66 17.5z" glyph-name="currency" horiz-adv-x="911" unicode="¤"/>
<glyph d="M978.5 1282.5q32.5 -34.5 32.5 -82.5q0 -35 -21 -71l-300 -502h97q35 0 53 -18t18 -52t-18.5 -52t-52.5 -18h-158v-108h159q35 0 53 -17.5t18 -51.5q0 -69 -71 -69h-159v-134q0 -56 -29.5 -85t-86.5 -29t-86.5 29t-29.5 85v134h-163q-70 0 -70 71q0 67 70 67h163v108 h-164q-34 0 -52 18.5t-18 53.5q0 33 18 50.5t52 17.5h102l-300 502q-21 34 -21 72q0 48 32.5 82t78.5 34q29 0 54 -14t41 -43l293 -530l292 530q16 29 40.5 43t54.5 14q46 0 78.5 -34.5z" glyph-name="yen" horiz-adv-x="1025" unicode="¥"/>
<glyph d="M172 1196q0 57 29.5 86.5t85.5 29.5q57 0 86.5 -29.5t29.5 -86.5v-505q0 -58 -29.5 -88t-86.5 -30q-56 0 -85.5 30t-29.5 88v505zM172 304q0 56 29.5 85.5t85.5 29.5q57 0 86.5 -29.5t29.5 -85.5v-504q0 -57 -29.5 -86.5t-86.5 -29.5q-56 0 -85.5 29.5t-29.5 86.5v504z " glyph-name="brokenbar" horiz-adv-x="575" unicode="¦"/>
<glyph d="M894.5 297q-22.5 -56 -61.5 -96q47 -67 47 -174q0 -113 -53 -197.5t-139.5 -130t-184.5 -45.5q-118 0 -196 32t-144 98q-21 16 -33.5 39.5t-12.5 50.5q0 41 29 73.5t72 32.5q28 0 58 -17q84 -87 219 -87q41 0 76 18t56.5 51t21.5 75t-21.5 69.5t-58.5 45.5t-109 44 l-66 25q-97 39 -166.5 81t-116.5 110.5t-47 166.5q0 64 24 122.5t62 97.5q-48 70 -48 184q0 98 48.5 181t139 132t212.5 49q88 0 176.5 -38.5t139.5 -92.5q53 -39 53 -88q0 -25 -14.5 -50t-39.5 -41t-55 -16t-58 17q-42 45 -98.5 66t-119.5 21q-41 0 -76.5 -18.5t-56.5 -52 t-21 -75.5q0 -45 22 -72.5t59 -44.5t112 -43l63 -22q95 -37 166 -80t117 -110.5t46 -162.5q0 -72 -22.5 -128zM544 360q104 -37 144 -54q25 47 25 92q0 50 -23 85t-64 59.5t-109 51.5q-77 28 -95 34q-89 31 -128 48q-26 -50 -26 -97q0 -66 45 -109t153 -83q40 -15 78 -27z " glyph-name="section" horiz-adv-x="970" unicode="§"/>
<glyph d="M202 1309.5q30 29.5 72 29.5t72.5 -29.5t30.5 -71.5t-30.5 -71.5t-72.5 -29.5t-72 29.5t-30 71.5t30 71.5zM522.5 1309.5q30.5 29.5 72.5 29.5t72 -29.5t30 -71.5t-30 -71.5t-72 -29.5q-43 0 -73 29.5t-30 71.5t30.5 71.5z" glyph-name="dieresis" horiz-adv-x="859" unicode="¨"/>
<glyph d="M1103.5 1237.5q154.5 -90.5 245.5 -245t91 -337.5q0 -182 -91 -336.5t-246 -245t-337 -90.5q-183 0 -337 90.5t-243.5 245t-89.5 336.5q0 183 89.5 337.5t243.5 245t337 90.5t337.5 -90.5zM517.5 1085.5q-114.5 -66.5 -181 -180.5t-66.5 -250t66.5 -250t181 -180 t250.5 -66q135 0 249.5 66t181 180t66.5 250t-66.5 250t-181 180.5t-249.5 66.5q-136 0 -250.5 -66.5zM513.5 878.5q38.5 66.5 107 106t155.5 39.5q85 0 148 -39.5t95 -90.5q25 -33 25 -63q0 -17 -11 -36t-31 -32t-44 -13q-22 0 -37 9t-39 32q-49 61 -114 61 q-48 0 -81.5 -36t-33.5 -85v-150q0 -32 15.5 -60t42 -45t57.5 -17q71 0 114 62q21 21 38 30t38 9q25 0 44.5 -12.5t30.5 -31.5t11 -37q-2 -38 -29 -70q-38 -49 -99 -85.5t-146 -36.5q-84 0 -151.5 40t-105.5 106t-38 142v161q0 76 38.5 142.5z" glyph-name="copyright" horiz-adv-x="1536" unicode="©"/>
<glyph d="M396.5 1275.5q57.5 -54.5 57.5 -144.5v-246q0 -20 -3.5 -31t-14.5 -20t-36 -19q-32 -12 -80 -18.5t-101 -6.5q-81 0 -131.5 41.5t-50.5 113.5v3q0 85 51 127.5t134 42.5q54 0 100 -20v26q0 39 -21 58.5t-57 19.5q-38 0 -77 -11l-14 -3.5t-24 -2.5q-20 0 -36.5 19 t-16.5 41q0 21 9.5 36t32.5 26q50 23 121 23q100 0 157.5 -54.5zM322 912v85q-16 6 -38 10.5t-42 4.5q-34 0 -53.5 -13t-19.5 -42v-1q0 -25 17.5 -40t49.5 -15q48 0 86 11z" glyph-name="ordfeminine" horiz-adv-x="517" unicode="ª"/>
<glyph d="M554 188q0 -31 -15.5 -59t-41 -46t-52.5 -18q-53 -2 -86 34l-281 301q-34 37 -34 80q0 51 44 97l271 287q16 17 37 26t43 9q29 0 56 -18t43.5 -47t16.5 -60q0 -41 -30 -74l-200 -217l200 -220q29 -32 29 -75zM1023 188q0 -31 -15.5 -59t-41 -46t-52.5 -18q-54 -2 -87 34 l-280 301q-34 37 -34 80q0 51 44 97l271 287q16 17 37 26t43 9q29 0 56 -18t43.5 -47t16.5 -60q0 -41 -30 -74l-201 -217l201 -220q29 -32 29 -75z" glyph-name="guillemotleft" horiz-adv-x="1113" unicode="«"/>
<glyph d="M754.5 298q-29.5 30 -29.5 87v128h-564q-57 0 -87 29.5t-30 85.5q0 57 30 87t87 30h684q55 -2 83.5 -31.5t28.5 -85.5v-243q0 -57 -29.5 -87t-85.5 -30q-58 0 -87.5 30z" glyph-name="logicalnot" horiz-adv-x="1045" unicode="¬"/>
<glyph d="M106.5 396q-30.5 27 -30.5 79q0 54 30 82t87 28h456q58 0 87.5 -28t29.5 -82q0 -52 -29.5 -79t-87.5 -27h-456q-56 0 -86.5 27z" glyph-name="uni00AD" horiz-adv-x="849" unicode="­"/>
<glyph d="M1103.5 1237.5q154.5 -90.5 245.5 -245t91 -337.5q0 -182 -91 -336.5t-246 -245t-337 -90.5q-183 0 -337 90.5t-243.5 245t-89.5 336.5q0 183 89.5 337.5t243.5 245t337 90.5t337.5 -90.5zM1023.5 214.5q116.5 67.5 185 184t68.5 256.5q0 139 -68.5 256t-185 185 t-255.5 68q-140 0 -256.5 -68t-184.5 -185t-68 -256q0 -140 68 -256.5t185 -184t256 -67.5t255.5 67.5zM920 1000.5q63 -28.5 101 -87t38 -145.5v-48q0 -61 -22.5 -109.5t-65.5 -80.5l69 -88q17 -21 17 -50q0 -35 -23.5 -62.5t-53.5 -27.5q-34 0 -54 24l-122 149h-20h-98 v-88q0 -39 -20.5 -60t-60.5 -21t-60.5 21t-20.5 60v561q0 33 23.5 57t57.5 24h178q74 0 137 -28.5zM686 622h100q110 0 110 101v46q0 43 -27.5 70.5t-82.5 27.5h-100v-245z" glyph-name="registered" horiz-adv-x="1536" unicode="®"/>
<glyph d="M610 1317q42 0 64 -21t22 -61q0 -88 -86 -88h-294q-83 0 -83 87q0 41 21 62t62 21h294z" glyph-name="macron" horiz-adv-x="881" unicode="¯"/>
<glyph d="M265.5 729.5q-73.5 44.5 -117 119t-43.5 160.5q0 87 43.5 160.5t116.5 116t159 42.5q88 0 161 -42.5t116 -115.5t43 -161q0 -86 -43 -160.5t-116.5 -119t-160.5 -44.5q-85 0 -158.5 44.5zM497.5 882.5q33.5 19.5 53 53t19.5 72.5q0 40 -19.5 73.5t-53 53t-73.5 19.5 q-39 0 -72.5 -19.5t-53 -53t-19.5 -73.5q0 -39 19.5 -72.5t53 -53t72.5 -19.5q40 0 73.5 19.5z" glyph-name="degree" horiz-adv-x="797" unicode="°"/>
<glyph d="M807.5 205q29.5 -28 29.5 -82q0 -52 -29.5 -79t-87.5 -27h-556q-57 0 -87 27t-30 79q0 54 30 82t87 28h165v8v179h-179q-57 0 -86.5 27.5t-29.5 80.5t29.5 81t86.5 28h179v179q0 57 28 86.5t81 29.5t80.5 -29.5t27.5 -86.5v-179h179q57 0 86.5 -28t29.5 -83 q0 -52 -29.5 -79t-86.5 -27h-179v-179v-8h174q58 0 87.5 -28z" glyph-name="plusminus" horiz-adv-x="875" unicode="±"/>
<glyph d="M80.5 826.5q-22.5 23.5 -22.5 55.5q0 13 6.5 27.5t16.5 26.5l234 264q26 29 38 51.5t12 49.5v3q0 26 -18 43.5t-57 17.5q-31 0 -52 -10t-40 -27q-5 -3 -14 -8.5t-16.5 -8.5t-16.5 -3q-35 0 -57.5 21.5t-22.5 49.5q0 24 9 39.5t26 28.5q28 26 77 47.5t119 21.5 q63 0 112 -26.5t76 -72.5t27 -102v-19q0 -92 -86 -186l-143 -155h168q77 0 77 -75q0 -38 -19.5 -57.5t-57.5 -19.5h-321q-32 0 -54.5 23.5z" glyph-name="uni00B2" horiz-adv-x="584" unicode="²"/>
<glyph d="M488 1196.5q49 -52.5 49 -145.5v-22q0 -68 -32.5 -121.5t-89 -84t-124.5 -30.5q-44 0 -78 11.5t-67 31.5q-39 19 -57 38.5t-18 50.5q0 28 19 51.5t56 23.5q18 0 50 -18q32 -21 53 -31t50 -10q37 0 61.5 25.5t24.5 66.5v18q0 36 -24 56t-66 20h-52q-31 0 -52 21t-21 53 q0 16 5.5 29.5t16.5 21.5l115 107h-149q-38 0 -58 18t-20 52q0 38 20 58t58 20h277q39 0 58.5 -19t19.5 -52q0 -21 -10 -39.5t-27 -31.5l-123 -111q86 -5 135 -57.5z" glyph-name="uni00B3" horiz-adv-x="604" unicode="³"/>
<glyph d="M271 1135q-26 -29 -65 -29q-38 0 -61 25t-23 60q0 22 11 44l86 140q16 32 35 41t45 9q25 0 48.5 -15.5t38.5 -40t15 -51.5q0 -36 -25 -62z" glyph-name="acute" horiz-adv-x="522" unicode="´"/>
<glyph d="M897 949q28 -28 28 -82v-698q0 -53 -17 -88.5t-68 -53.5q-44 -16 -125 -30.5t-161 -14.5q-126 0 -200 95v-316q0 -52 -26.5 -79.5t-78.5 -27.5q-55 0 -83 29t-28 84v1100q0 54 28.5 82t83.5 28q51 0 77.5 -28t26.5 -82v-500q0 -53 23.5 -93t63.5 -61.5t89 -21.5 q59 0 98.5 8t80.5 20v648q0 54 27 82t79 28q54 0 82 -28z" glyph-name="uni00B5" horiz-adv-x="1063" unicode="µ"/>
<glyph d="M1127 1278q33 -33 33 -98v-1064q0 -56 -30.5 -86t-88.5 -30q-55 0 -83 31.5t-28 93.5v956h-199v-958q0 -60 -28.5 -91.5t-82.5 -31.5q-58 0 -88.5 30t-30.5 86v475h-42q-122 0 -213 44.5t-140 127t-49 193.5q0 108 49 188t140 123.5t213 43.5h571q64 0 97 -33z" glyph-name="paragraph" horiz-adv-x="1332" unicode="¶"/>
<glyph d="M251 384q-31 18 -49 49t-18 67t18 66.5t49 48.5t66 18q36 0 67 -18t49 -48.5t18 -66.5t-18 -67t-49 -49t-67 -18q-35 0 -66 18z" glyph-name="periodcentered" horiz-adv-x="616" unicode="·"/>
<glyph d="M202 -1h113l-22 -60q74 -9 120 -46t46 -100t-42.5 -112.5t-118.5 -72.5l-34 -10q-11 -3 -22 -3q-28 0 -47.5 22t-20.5 57q0 15 9.5 29t33.5 21l16 5q39 12 59 24t20 34q0 23 -16.5 33.5t-60.5 14.5q-54 0 -54 46q0 6 2 20z" glyph-name="cedilla" horiz-adv-x="504" unicode="¸"/>
<glyph d="M196 818.5q-20 19.5 -20 57.5v428l-17 -8q-5 -5 -12 -6t-21 -1q-31 0 -50.5 23t-19.5 52q1 21 11 38.5t28 27.5l110 66q15 9 24.5 11.5t25.5 4.5q37 0 55.5 -21.5t18.5 -52.5l-1 -562q0 -38 -18.5 -57.5t-54.5 -19.5q-39 0 -59 19.5z" glyph-name="uni00B9" horiz-adv-x="501" unicode="¹"/>
<glyph d="M39 1126q0 58 28.5 104.5t78.5 73t110 26.5t109.5 -27t78.5 -73.5t29 -103.5v-133q0 -56 -29 -102.5t-79 -73.5t-109 -27q-60 0 -109.5 27t-78.5 73t-29 103v133zM170 1000q0 -37 24.5 -59t61.5 -22t61 22t24 59v121q0 36 -24 58.5t-61 22.5t-61.5 -22.5t-24.5 -58.5 v-121z" glyph-name="ordmasculine" horiz-adv-x="512" unicode="º"/>
<glyph d="M320 483l-201 217q-30 33 -30 75q0 31 16.5 60t43.5 46.5t56 17.5q22 0 43 -9t37 -26l271 -287q44 -46 44 -97q0 -43 -34 -80l-280 -301q-33 -36 -87 -34q-27 0 -52.5 18t-41 46t-15.5 59q0 43 29 75zM788 483l-200 217q-30 33 -30 75q0 31 16.5 60t43.5 46.5t56 17.5 q22 0 43 -9t37 -26l271 -287q44 -46 44 -97q0 -43 -34 -80l-281 -301q-33 -36 -86 -34q-27 0 -52.5 18t-41 46t-15.5 59q0 43 29 75z" glyph-name="guillemotright" horiz-adv-x="1113" unicode="»"/>
<glyph d="M196 618.5q-20 19.5 -20 57.5v428l-17 -8q-5 -5 -12 -6t-21 -1q-31 0 -50.5 23t-19.5 52q1 21 11 38.5t28 27.5l110 66q15 9 24.5 11.5t25.5 4.5q37 0 55.5 -21.5t18.5 -52.5l-1 -562q0 -38 -18.5 -57.5t-54.5 -19.5q-39 0 -59 19.5zM480 62q-17 -35 -34.5 -51.5 t-43.5 -16.5q-45 0 -71 22t-26 58q0 26 13 53l524 1125q12 27 34 42.5t49 15.5q47 0 69 -20t22 -55q0 -33 -16 -69zM1193 12.5q-20 19.5 -20 56.5v71h-206q-34 0 -55.5 22t-21.5 64q0 16 8 37l153 389q8 23 27.5 35t45.5 12q37 0 56.5 -15.5t19.5 -45.5q0 -22 -8 -43 l-124 -302h105v46q0 38 20 57.5t58 19.5q37 0 55.5 -19.5t18.5 -57.5v-46h14q36 0 55 -19.5t19 -56.5t-19 -57t-55 -20h-14v-71q0 -37 -18.5 -56.5t-55.5 -19.5q-38 0 -58 19.5z" glyph-name="onequarter" horiz-adv-x="1585" unicode="¼"/>
<glyph d="M196 618.5q-20 19.5 -20 57.5v428l-17 -8q-5 -5 -12 -6t-21 -1q-31 0 -50.5 23t-19.5 52q1 21 11 38.5t28 27.5l110 66q15 9 24.5 11.5t25.5 4.5q37 0 55.5 -21.5t18.5 -52.5l-1 -562q0 -38 -18.5 -57.5t-54.5 -19.5q-39 0 -59 19.5zM446 62q-17 -35 -34.5 -51.5 t-43.5 -16.5q-45 0 -71 22t-26 58q0 26 13 53l524 1125q12 27 34 42.5t49 15.5q47 0 69 -20t22 -55q0 -33 -16 -69zM869.5 16.5q-22.5 23.5 -22.5 55.5q0 13 6.5 27.5t16.5 26.5l234 264q26 29 38 51.5t12 49.5v3q0 26 -18 43.5t-57 17.5q-31 0 -52 -10t-40 -27 q-5 -3 -14 -8.5t-16.5 -8.5t-16.5 -3q-35 0 -57.5 21.5t-22.5 49.5q0 24 9 39.5t26 28.5q28 26 77 47.5t119 21.5q63 0 112 -26.5t76 -72.5t27 -102v-19q0 -92 -86 -186l-143 -155h168q77 0 77 -75q0 -38 -19.5 -57.5t-57.5 -19.5h-321q-32 0 -54.5 23.5z" glyph-name="onehalf" horiz-adv-x="1494" unicode="½"/>
<glyph d="M488 996.5q49 -52.5 49 -145.5v-22q0 -68 -32.5 -121.5t-89 -84t-124.5 -30.5q-44 0 -78 11.5t-67 31.5q-39 19 -57 38.5t-18 50.5q0 28 19 51.5t56 23.5q18 0 50 -18q32 -21 53 -31t50 -10q37 0 61.5 25.5t24.5 66.5v18q0 36 -24 56t-66 20h-52q-31 0 -52 21t-21 53 q0 16 5.5 29.5t16.5 21.5l115 107h-149q-38 0 -58 18t-20 52q0 38 20 58t58 20h277q39 0 58.5 -19t19.5 -52q0 -21 -10 -39.5t-27 -31.5l-123 -111q86 -5 135 -57.5zM576 62q-17 -35 -34.5 -51.5t-43.5 -16.5q-45 0 -71 22t-26 58q0 26 13 53l524 1125q12 27 34 42.5 t49 15.5q47 0 69 -20t22 -55q0 -33 -16 -69zM1223 12.5q-20 19.5 -20 56.5v71h-206q-34 0 -55.5 22t-21.5 64q0 16 8 37l153 389q8 23 27.5 35t45.5 12q37 0 56.5 -15.5t19.5 -45.5q0 -22 -8 -43l-124 -302h105v46q0 38 20 57.5t58 19.5q37 0 55.5 -19.5t18.5 -57.5v-46h14 q36 0 55 -19.5t19 -56.5t-19 -57t-55 -20h-14v-71q0 -37 -18.5 -56.5t-55.5 -19.5q-38 0 -58 19.5z" glyph-name="threequarters" horiz-adv-x="1510" unicode="¾"/>
<glyph d="M686 782q-19 -32 -51 -51t-69 -19t-68.5 19t-50 51t-18.5 69t18.5 68.5t50 50.5t68.5 19t69 -19t51 -50.5t19 -68.5t-19 -69zM637.5 580.5q28.5 -24.5 28.5 -67.5q-3 -63 -30.5 -112t-69.5 -87t-113 -89q-58 -46 -88 -73.5t-49 -58t-19 -65.5v-12q0 -64 50 -100.5 t125 -36.5q67 0 119 21.5t101 71.5q7 5 23 19.5t31.5 21.5t32.5 7q45 0 75 -30.5t30 -77.5q0 -21 -8.5 -44.5t-26.5 -41.5q-68 -75 -165.5 -126t-220.5 -51q-109 0 -199.5 44t-143.5 123.5t-53 181.5v18q0 76 31.5 135.5t79.5 105.5t135 115q54 42 90 81.5t56 87.5 q18 29 40.5 46.5t59.5 17.5q50 0 78.5 -24.5z" glyph-name="questiondown" horiz-adv-x="930" unicode="¿"/>
<glyph d="M1058 99q0 -45 -31 -75.5t-89 -30.5q-35 0 -63.5 15.5t-37.5 47.5l-69 225h-452l-69 -225q-9 -32 -38 -47.5t-65 -15.5q-53 0 -85.5 30.5t-32.5 76.5q0 23 9 48l398 1106q12 32 40.5 47.5t69.5 15.5q40 0 68.5 -15.5t40.5 -46.5l397 -1107q9 -24 9 -49zM700 505l-157 512 l-158 -512h315zM368 1622q0 27 15 51.5t38.5 40t48.5 15.5q26 0 45 -9t35 -41l86 -140q11 -22 11 -44q0 -35 -23 -60t-61 -25q-39 0 -65 29l-105 121q-25 26 -25 62z" glyph-name="Agrave" horiz-adv-x="1084" unicode="À"/>
<glyph d="M1058 99q0 -45 -31 -75.5t-89 -30.5q-35 0 -63.5 15.5t-37.5 47.5l-69 225h-452l-69 -225q-9 -32 -38 -47.5t-65 -15.5q-53 0 -85.5 30.5t-32.5 76.5q0 23 9 48l398 1106q12 32 40.5 47.5t69.5 15.5q40 0 68.5 -15.5t40.5 -46.5l397 -1107q9 -24 9 -49zM700 505l-157 512 l-158 -512h315zM600 1445q-26 -29 -65 -29q-38 0 -61 25t-23 60q0 22 11 44l86 140q16 32 35 41t45 9q25 0 48.5 -15.5t38.5 -40t15 -51.5q0 -36 -25 -62z" glyph-name="Aacute" horiz-adv-x="1084" unicode="Á"/>
<glyph d="M1058 99q0 -45 -31 -75.5t-89 -30.5q-35 0 -63.5 15.5t-37.5 47.5l-69 225h-452l-69 -225q-9 -32 -38 -47.5t-65 -15.5q-53 0 -85.5 30.5t-32.5 76.5q0 23 9 48l398 1106q12 32 40.5 47.5t69.5 15.5q40 0 68.5 -15.5t40.5 -46.5l397 -1107q9 -24 9 -49zM700 505l-157 512 l-158 -512h315zM543 1508l-113 -93q-16 -11 -28.5 -15t-32.5 -4t-38.5 12.5t-30 31t-11.5 34.5q0 24 13 42t43 40l131 105q13 10 31.5 17.5t35.5 7.5q14 0 33.5 -7t33.5 -18l131 -105q31 -23 43.5 -40t12.5 -42q0 -16 -12.5 -34.5t-31.5 -31t-36 -12.5q-20 0 -32.5 4 t-28.5 15z" glyph-name="Acircumflex" horiz-adv-x="1084" unicode="Â"/>
<glyph d="M1058 99q0 -45 -31 -75.5t-89 -30.5q-35 0 -63.5 15.5t-37.5 47.5l-69 225h-452l-69 -225q-9 -32 -38 -47.5t-65 -15.5q-53 0 -85.5 30.5t-32.5 76.5q0 23 9 48l398 1106q12 32 40.5 47.5t69.5 15.5q40 0 68.5 -15.5t40.5 -46.5l397 -1107q9 -24 9 -49zM700 505l-157 512 l-158 -512h315zM799 1654.5q24 -23.5 24 -55.5q0 -21 -5 -34.5t-22 -30.5q-36 -37 -74 -56.5t-88 -19.5q-36 0 -59.5 8.5t-51.5 25.5q-19 12 -34 18t-33 6q-17 0 -30.5 -8.5t-44.5 -33.5q-11 -8 -19 -11.5t-20 -3.5q-36 0 -60 23.5t-24 55.5q0 20 5.5 34t23.5 32 q36 36 73.5 55t85.5 19q37 0 61 -9t52 -25q19 -12 33.5 -17.5t32.5 -5.5q17 0 33.5 11t39.5 33q16 13 40 13q37 0 61 -23.5z" glyph-name="Atilde" horiz-adv-x="1084" unicode="Ã"/>
<glyph d="M1058 99q0 -45 -31 -75.5t-89 -30.5q-35 0 -63.5 15.5t-37.5 47.5l-69 225h-452l-69 -225q-9 -32 -38 -47.5t-65 -15.5q-53 0 -85.5 30.5t-32.5 76.5q0 23 9 48l398 1106q12 32 40.5 47.5t69.5 15.5q40 0 68.5 -15.5t40.5 -46.5l397 -1107q9 -24 9 -49zM700 505l-157 512 l-158 -512h315zM310 1622.5q30 29.5 72 29.5t72.5 -29.5t30.5 -71.5t-30.5 -71.5t-72.5 -29.5t-72 29.5t-30 71.5t30 71.5zM630.5 1622.5q30.5 29.5 72.5 29.5t72 -29.5t30 -71.5t-30 -71.5t-72 -29.5q-43 0 -73 29.5t-30 71.5t30.5 71.5z" glyph-name="Adieresis" horiz-adv-x="1084" unicode="Ä"/>
<glyph d="M1058 99q0 -45 -31 -75.5t-89 -30.5q-35 0 -63.5 15.5t-37.5 47.5l-69 225h-452l-69 -225q-9 -32 -38 -47.5t-65 -15.5q-53 0 -85.5 30.5t-32.5 76.5q0 23 9 48l398 1106q12 32 40.5 47.5t69.5 15.5q40 0 68.5 -15.5t40.5 -46.5l397 -1107q9 -24 9 -49zM700 505l-157 512 l-158 -512h315zM463 1465q-36 22 -57.5 58.5t-21.5 79.5t21.5 79.5t57.5 58t79 21.5t79.5 -21.5t57.5 -58t21 -79.5t-21 -79.5t-57.5 -58.5t-79.5 -22t-79 22zM578 1566q15 16 15 37t-15 36.5t-36 15.5t-36.5 -15.5t-15.5 -36.5t15.5 -37t36.5 -16t36 16z" glyph-name="Aring" horiz-adv-x="1084" unicode="Å"/>
<glyph d="M1628 201.5q29 -29.5 29 -87.5q0 -56 -29 -85t-85 -29h-556q-52 0 -78.5 29t-26.5 85v129q-4 -1 -13 -1h-483l-157 -199q-42 -51 -89 -51q-39 0 -77 31q-52 41 -52 87q0 38 33 77l845 1070q12 15 21 23q11 11 27 19q22 10 40 10q6 1 20 1h546q56 0 85 -29t29 -86 t-29 -86.5t-85 -29.5h-430v-300h320q57 0 86 -28t29 -82q0 -53 -29 -80.5t-86 -27.5h-320v-330h430q56 0 85 -29.5zM882 478v391l-308 -389l295 -1q9 0 13 -1z" glyph-name="AE" horiz-adv-x="1731" unicode="Æ"/>
<glyph d="M891.5 290.5q25.5 -16.5 41 -43.5t15.5 -57q0 -52 -47 -88q-64 -49 -132 -80t-163 -38l-11 -29q74 -9 120 -46t46 -100t-42.5 -112.5t-118.5 -72.5l-34 -10q-11 -3 -22 -3q-28 0 -47.5 22t-20.5 57q0 15 9.5 29t33.5 21l16 5q40 12 59.5 24t19.5 34q0 23 -16.5 33.5 t-60.5 14.5q-54 0 -54 46q0 6 2 20l13 68q-116 13 -208 78.5t-143 166.5t-51 216v417q0 125 58 232t162.5 170t236.5 63q104 0 184 -28t164 -92q47 -35 47 -88q0 -30 -15.5 -57t-41 -43.5t-53.5 -16.5q-20 0 -40 7.5t-47 24.5q-46 31 -92.5 46.5t-108.5 15.5t-112.5 -28.5 t-80.5 -83.5t-30 -130v-399q0 -77 30.5 -132t82 -83t113.5 -28q58 0 106 16t93 46q50 32 86 32q28 0 53.5 -16.5z" glyph-name="Ccedilla" horiz-adv-x="1016" unicode="Ç"/>
<glyph d="M277 0q-52 0 -78.5 29t-26.5 85v1081q0 57 29.5 86t85.5 29h546q56 0 85 -29t29 -86t-29 -86.5t-85 -29.5h-430v-300h320q57 0 86 -28t29 -82q0 -53 -29 -80.5t-86 -27.5h-320v-330h430q56 0 85 -29.5t29 -87.5q0 -56 -29 -85t-85 -29h-556zM383 1622q0 27 15 51.5 t38.5 40t48.5 15.5q26 0 45 -9t35 -41l86 -140q11 -22 11 -44q0 -35 -23 -60t-61 -25q-39 0 -65 29l-105 121q-25 26 -25 62z" glyph-name="Egrave" horiz-adv-x="1021" unicode="È"/>
<glyph d="M277 0q-52 0 -78.5 29t-26.5 85v1081q0 57 29.5 86t85.5 29h546q56 0 85 -29t29 -86t-29 -86.5t-85 -29.5h-430v-300h320q57 0 86 -28t29 -82q0 -53 -29 -80.5t-86 -27.5h-320v-330h430q56 0 85 -29.5t29 -87.5q0 -56 -29 -85t-85 -29h-556zM615 1445q-26 -29 -65 -29 q-38 0 -61 25t-23 60q0 22 11 44l86 140q16 32 35 41t45 9q25 0 48.5 -15.5t38.5 -40t15 -51.5q0 -36 -25 -62z" glyph-name="Eacute" horiz-adv-x="1021" unicode="É"/>
<glyph d="M277 0q-52 0 -78.5 29t-26.5 85v1081q0 57 29.5 86t85.5 29h546q56 0 85 -29t29 -86t-29 -86.5t-85 -29.5h-430v-300h320q57 0 86 -28t29 -82q0 -53 -29 -80.5t-86 -27.5h-320v-330h430q56 0 85 -29.5t29 -87.5q0 -56 -29 -85t-85 -29h-556zM558 1508l-113 -93 q-16 -11 -28.5 -15t-32.5 -4t-38.5 12.5t-30 31t-11.5 34.5q0 24 13 42t43 40l131 105q13 10 31.5 17.5t35.5 7.5q14 0 33.5 -7t33.5 -18l131 -105q31 -23 43.5 -40t12.5 -42q0 -16 -12.5 -34.5t-31.5 -31t-36 -12.5q-20 0 -32.5 4t-28.5 15z" glyph-name="Ecircumflex" horiz-adv-x="1021" unicode="Ê"/>
<glyph d="M277 0q-52 0 -78.5 29t-26.5 85v1081q0 57 29.5 86t85.5 29h546q56 0 85 -29t29 -86t-29 -86.5t-85 -29.5h-430v-300h320q57 0 86 -28t29 -82q0 -53 -29 -80.5t-86 -27.5h-320v-330h430q56 0 85 -29.5t29 -87.5q0 -56 -29 -85t-85 -29h-556zM324 1622.5q30 29.5 72 29.5 t72.5 -29.5t30.5 -71.5t-30.5 -71.5t-72.5 -29.5t-72 29.5t-30 71.5t30 71.5zM644.5 1622.5q30.5 29.5 72.5 29.5t72 -29.5t30 -71.5t-30 -71.5t-72 -29.5q-43 0 -73 29.5t-30 71.5t30.5 71.5z" glyph-name="Edieresis" horiz-adv-x="1021" unicode="Ë"/>
<glyph d="M403 107q0 -56 -30 -85t-86 -29t-85.5 29t-29.5 85v1097q0 56 29.5 84.5t85.5 28.5q57 0 86.5 -28.5t29.5 -84.5v-1097zM113 1622q0 27 15 51.5t38.5 40t48.5 15.5q26 0 45 -9t35 -41l86 -140q11 -22 11 -44q0 -35 -23 -60t-61 -25q-39 0 -65 29l-105 121q-25 26 -25 62z " glyph-name="Igrave" horiz-adv-x="575" unicode="Ì"/>
<glyph d="M403 107q0 -56 -30 -85t-86 -29t-85.5 29t-29.5 85v1097q0 56 29.5 84.5t85.5 28.5q57 0 86.5 -28.5t29.5 -84.5v-1097zM345 1445q-26 -29 -65 -29q-38 0 -61 25t-23 60q0 22 11 44l86 140q16 32 35 41t45 9q25 0 48.5 -15.5t38.5 -40t15 -51.5q0 -36 -25 -62z" glyph-name="Iacute" horiz-adv-x="575" unicode="Í"/>
<glyph d="M403 107q0 -56 -30 -85t-86 -29t-85.5 29t-29.5 85v1097q0 56 29.5 84.5t85.5 28.5q57 0 86.5 -28.5t29.5 -84.5v-1097zM287 1508l-113 -93q-16 -11 -28.5 -15t-32.5 -4t-38.5 12.5t-30 31t-11.5 34.5q0 24 13 42t43 40l131 105q13 10 31.5 17.5t35.5 7.5q14 0 33.5 -7 t33.5 -18l131 -105q31 -23 43.5 -40t12.5 -42q0 -16 -12.5 -34.5t-31.5 -31t-36 -12.5q-20 0 -32.5 4t-28.5 15z" glyph-name="Icircumflex" horiz-adv-x="575" unicode="Î"/>
<glyph d="M403 107q0 -56 -30 -85t-86 -29t-85.5 29t-29.5 85v1097q0 56 29.5 84.5t85.5 28.5q57 0 86.5 -28.5t29.5 -84.5v-1097zM54 1622.5q30 29.5 72 29.5t72.5 -29.5t30.5 -71.5t-30.5 -71.5t-72.5 -29.5t-72 29.5t-30 71.5t30 71.5zM374.5 1622.5q30.5 29.5 72.5 29.5 t72 -29.5t30 -71.5t-30 -71.5t-72 -29.5q-43 0 -73 29.5t-30 71.5t30.5 71.5z" glyph-name="Idieresis" horiz-adv-x="575" unicode="Ï"/>
<glyph d="M817.5 1246.5q110.5 -63.5 172.5 -169.5t62 -230v-390q0 -122 -61.5 -226.5t-171 -167t-245.5 -63.5h-7h-5h-275q-56 0 -85.5 29t-29.5 85v457h-84q-41 0 -62.5 22.5t-21.5 65.5q0 40 21.5 61t62.5 21h84v456q0 56 29.5 84.5t85.5 28.5h279h1q140 0 250.5 -63.5zM820 846 q0 68 -34.5 121t-92.5 82.5t-126 29.5h-1h-163v-338h91q86 0 86 -82q0 -88 -86 -88h-91v-340h163h1q70 0 127.5 28t91.5 80.5t34 121.5v385z" glyph-name="Eth" horiz-adv-x="1147" unicode="Ð"/>
<glyph d="M1085 1292q29 -30 29 -87v-1118q0 -47 -28.5 -72t-72.5 -25q-71 0 -100 46l-510 803v-731q0 -58 -29.5 -88t-86.5 -30q-115 0 -115 118v1107q0 46 32 76.5t80 30.5q67 0 98 -47l500 -785v715q0 57 30 87t88 30q56 0 85 -30zM900 1654.5q24 -23.5 24 -55.5q0 -21 -5 -34.5 t-22 -30.5q-36 -37 -74 -56.5t-88 -19.5q-36 0 -59.5 8.5t-51.5 25.5q-19 12 -34 18t-33 6q-17 0 -30.5 -8.5t-44.5 -33.5q-11 -8 -19 -11.5t-20 -3.5q-36 0 -60 23.5t-24 55.5q0 20 5.5 34t23.5 32q36 36 73.5 55t85.5 19q37 0 61 -9t52 -25q19 -12 33.5 -17.5t32.5 -5.5 q17 0 33.5 11t39.5 33q16 13 40 13q37 0 61 -23.5z" glyph-name="Ntilde" horiz-adv-x="1286" unicode="Ñ"/>
<glyph d="M96 870q0 123 59 228t165.5 167.5t240.5 62.5q135 0 242 -62.5t166.5 -167.5t59.5 -228v-432q0 -123 -60.5 -227.5t-167.5 -166.5t-240 -62t-239 62t-166 167t-60 227v432zM327 449q0 -74 31.5 -127.5t85 -81t117.5 -27.5q66 0 119.5 27.5t85 81t31.5 127.5v412 q0 73 -32 126.5t-85.5 81.5t-118.5 28q-64 0 -117.5 -28t-85 -81.5t-31.5 -126.5v-412zM388 1622q0 27 15 51.5t38.5 40t48.5 15.5q26 0 45 -9t35 -41l86 -140q11 -22 11 -44q0 -35 -23 -60t-61 -25q-39 0 -65 29l-105 121q-25 26 -25 62z" glyph-name="Ograve" horiz-adv-x="1125" unicode="Ò"/>
<glyph d="M96 870q0 123 59 228t165.5 167.5t240.5 62.5q135 0 242 -62.5t166.5 -167.5t59.5 -228v-432q0 -123 -60.5 -227.5t-167.5 -166.5t-240 -62t-239 62t-166 167t-60 227v432zM327 449q0 -74 31.5 -127.5t85 -81t117.5 -27.5q66 0 119.5 27.5t85 81t31.5 127.5v412 q0 73 -32 126.5t-85.5 81.5t-118.5 28q-64 0 -117.5 -28t-85 -81.5t-31.5 -126.5v-412zM620 1445q-26 -29 -65 -29q-38 0 -61 25t-23 60q0 22 11 44l86 140q16 32 35 41t45 9q25 0 48.5 -15.5t38.5 -40t15 -51.5q0 -36 -25 -62z" glyph-name="Oacute" horiz-adv-x="1125" unicode="Ó"/>
<glyph d="M96 870q0 123 59 228t165.5 167.5t240.5 62.5q135 0 242 -62.5t166.5 -167.5t59.5 -228v-432q0 -123 -60.5 -227.5t-167.5 -166.5t-240 -62t-239 62t-166 167t-60 227v432zM327 449q0 -74 31.5 -127.5t85 -81t117.5 -27.5q66 0 119.5 27.5t85 81t31.5 127.5v412 q0 73 -32 126.5t-85.5 81.5t-118.5 28q-64 0 -117.5 -28t-85 -81.5t-31.5 -126.5v-412zM563 1508l-113 -93q-16 -11 -28.5 -15t-32.5 -4t-38.5 12.5t-30 31t-11.5 34.5q0 24 13 42t43 40l131 105q13 10 31.5 17.5t35.5 7.5q14 0 33.5 -7t33.5 -18l131 -105q31 -23 43.5 -40 t12.5 -42q0 -16 -12.5 -34.5t-31.5 -31t-36 -12.5q-20 0 -32.5 4t-28.5 15z" glyph-name="Ocircumflex" horiz-adv-x="1125" unicode="Ô"/>
<glyph d="M96 870q0 123 59 228t165.5 167.5t240.5 62.5q135 0 242 -62.5t166.5 -167.5t59.5 -228v-432q0 -123 -60.5 -227.5t-167.5 -166.5t-240 -62t-239 62t-166 167t-60 227v432zM327 449q0 -74 31.5 -127.5t85 -81t117.5 -27.5q66 0 119.5 27.5t85 81t31.5 127.5v412 q0 73 -32 126.5t-85.5 81.5t-118.5 28q-64 0 -117.5 -28t-85 -81.5t-31.5 -126.5v-412zM819 1654.5q24 -23.5 24 -55.5q0 -21 -5 -34.5t-22 -30.5q-36 -37 -74 -56.5t-88 -19.5q-36 0 -59.5 8.5t-51.5 25.5q-19 12 -34 18t-33 6q-17 0 -30.5 -8.5t-44.5 -33.5 q-11 -8 -19 -11.5t-20 -3.5q-36 0 -60 23.5t-24 55.5q0 20 5.5 34t23.5 32q36 36 73.5 55t85.5 19q37 0 61 -9t52 -25q19 -12 33.5 -17.5t32.5 -5.5q17 0 33.5 11t39.5 33q16 13 40 13q37 0 61 -23.5z" glyph-name="Otilde" horiz-adv-x="1125" unicode="Õ"/>
<glyph d="M96 870q0 123 59 228t165.5 167.5t240.5 62.5q135 0 242 -62.5t166.5 -167.5t59.5 -228v-432q0 -123 -60.5 -227.5t-167.5 -166.5t-240 -62t-239 62t-166 167t-60 227v432zM327 449q0 -74 31.5 -127.5t85 -81t117.5 -27.5q66 0 119.5 27.5t85 81t31.5 127.5v412 q0 73 -32 126.5t-85.5 81.5t-118.5 28q-64 0 -117.5 -28t-85 -81.5t-31.5 -126.5v-412zM330 1622.5q30 29.5 72 29.5t72.5 -29.5t30.5 -71.5t-30.5 -71.5t-72.5 -29.5t-72 29.5t-30 71.5t30 71.5zM650.5 1622.5q30.5 29.5 72.5 29.5t72 -29.5t30 -71.5t-30 -71.5t-72 -29.5 q-43 0 -73 29.5t-30 71.5t30.5 71.5z" glyph-name="Odieresis" horiz-adv-x="1125" unicode="Ö"/>
<glyph d="M958 134q0 -38 -37 -74q-39 -37 -75 -37q-35 0 -74 37l-254 255l-255 -256q-38 -38 -77 -38t-76 37q-36 35 -36 73q0 39 36 76l257 259l-264 265q-35 35 -35 73t38 76q36 36 74 36t75 -37l261 -263l260 262q38 38 77 38t74 -35q40 -39 40 -78q0 -36 -36 -72l-264 -266 l253 -255q38 -38 38 -76z" glyph-name="multiply" horiz-adv-x="1013" unicode="×"/>
<glyph d="M1006.5 1013q22.5 -69 22.5 -143v-432q0 -123 -60.5 -227.5t-167.5 -166.5t-240 -62q-114 0 -212 48l-25 -48q-16 -26 -37.5 -39.5t-52.5 -13.5q-47 0 -69.5 23.5t-22.5 63.5q0 50 31 104l20 37q-47 59 -72 131t-25 150v432q0 123 59 228t165.5 167.5t240.5 62.5 q122 0 227 -54l27 51q28 48 84 48q47 0 72.5 -25t25.5 -66q0 -43 -26 -88l-29 -54q42 -58 64.5 -127zM329 413l350 656q-52 28 -118 28q-64 0 -117.5 -28t-85 -81.5t-31.5 -126.5v-412q0 -12 2 -36zM797 861v7l-339 -634q48 -21 103 -21q66 0 119.5 27.5t85 81t31.5 127.5 v412z" glyph-name="Oslash" horiz-adv-x="1125" unicode="Ø"/>
<glyph d="M358.5 44.5q-104.5 62.5 -167 168t-62.5 225.5v765q0 56 29 85t86 29t86.5 -29t29.5 -85v-754q0 -74 30 -127.5t82 -81t116 -27.5q65 0 116 27.5t80 80.5t29 128v754q0 56 30 85t87 29q56 0 85.5 -29t29.5 -85v-765q0 -124 -58 -228.5t-163 -166t-241 -61.5 q-120 0 -224.5 62.5zM412 1622q0 27 15 51.5t38.5 40t48.5 15.5q26 0 45 -9t35 -41l86 -140q11 -22 11 -44q0 -35 -23 -60t-61 -25q-39 0 -65 29l-105 121q-25 26 -25 62z" glyph-name="Ugrave" horiz-adv-x="1173" unicode="Ù"/>
<glyph d="M358.5 44.5q-104.5 62.5 -167 168t-62.5 225.5v765q0 56 29 85t86 29t86.5 -29t29.5 -85v-754q0 -74 30 -127.5t82 -81t116 -27.5q65 0 116 27.5t80 80.5t29 128v754q0 56 30 85t87 29q56 0 85.5 -29t29.5 -85v-765q0 -124 -58 -228.5t-163 -166t-241 -61.5 q-120 0 -224.5 62.5zM644 1445q-26 -29 -65 -29q-38 0 -61 25t-23 60q0 22 11 44l86 140q16 32 35 41t45 9q25 0 48.5 -15.5t38.5 -40t15 -51.5q0 -36 -25 -62z" glyph-name="Uacute" horiz-adv-x="1173" unicode="Ú"/>
<glyph d="M358.5 44.5q-104.5 62.5 -167 168t-62.5 225.5v765q0 56 29 85t86 29t86.5 -29t29.5 -85v-754q0 -74 30 -127.5t82 -81t116 -27.5q65 0 116 27.5t80 80.5t29 128v754q0 56 30 85t87 29q56 0 85.5 -29t29.5 -85v-765q0 -124 -58 -228.5t-163 -166t-241 -61.5 q-120 0 -224.5 62.5zM586 1508l-113 -93q-16 -11 -28.5 -15t-32.5 -4t-38.5 12.5t-30 31t-11.5 34.5q0 24 13 42t43 40l131 105q13 10 31.5 17.5t35.5 7.5q14 0 33.5 -7t33.5 -18l131 -105q31 -23 43.5 -40t12.5 -42q0 -16 -12.5 -34.5t-31.5 -31t-36 -12.5q-20 0 -32.5 4 t-28.5 15z" glyph-name="Ucircumflex" horiz-adv-x="1173" unicode="Û"/>
<glyph d="M358.5 44.5q-104.5 62.5 -167 168t-62.5 225.5v765q0 56 29 85t86 29t86.5 -29t29.5 -85v-754q0 -74 30 -127.5t82 -81t116 -27.5q65 0 116 27.5t80 80.5t29 128v754q0 56 30 85t87 29q56 0 85.5 -29t29.5 -85v-765q0 -124 -58 -228.5t-163 -166t-241 -61.5 q-120 0 -224.5 62.5zM353 1622.5q30 29.5 72 29.5t72.5 -29.5t30.5 -71.5t-30.5 -71.5t-72.5 -29.5t-72 29.5t-30 71.5t30 71.5zM673.5 1622.5q30.5 29.5 72.5 29.5t72 -29.5t30 -71.5t-30 -71.5t-72 -29.5q-43 0 -73 29.5t-30 71.5t30.5 71.5z" glyph-name="Udieresis" horiz-adv-x="1173" unicode="Ü"/>
<glyph d="M978.5 1282.5q32.5 -34.5 32.5 -82.5q0 -35 -21 -71l-361 -604v-418q0 -56 -29.5 -85t-86.5 -29t-86.5 29t-29.5 85v417l-362 605q-21 34 -21 72q0 48 32.5 82t78.5 34q29 0 54 -14t41 -43l293 -530l292 530q16 29 40.5 43t54.5 14q46 0 78.5 -34.5zM570 1445 q-26 -29 -65 -29q-38 0 -61 25t-23 60q0 22 11 44l86 140q16 32 35 41t45 9q25 0 48.5 -15.5t38.5 -40t15 -51.5q0 -36 -25 -62z" glyph-name="Yacute" horiz-adv-x="1025" unicode="Ý"/>
<glyph d="M201 22q-29 29 -29 85v1097q0 56 29.5 84.5t85.5 28.5q55 0 83.5 -24t28.5 -71v-104h126q147 0 257.5 -49t172.5 -149t62 -248v-26q0 -144 -62 -241t-172.5 -144.5t-257.5 -47.5h-123v-109q0 -55 -29.5 -83t-85.5 -28q-57 0 -86 29zM528 443q128 0 192.5 50t64.5 170v16 q0 109 -63.5 158.5t-192.5 49.5h-127v-444h126z" glyph-name="Thorn" horiz-adv-x="1113" unicode="Þ"/>
<glyph d="M612 -7q-45 10 -89 27q-36 11 -54.5 40t-18.5 67q0 42 26 73.5t66 30.5q24 -5 57 -17q31 -11 51.5 -16t44.5 -5q52 0 80.5 27.5t28.5 76.5q0 40 -26.5 77t-93.5 79q-70 45 -113 100t-43 133q0 63 21.5 109.5t56.5 89.5q69 77 69 135q0 33 -18.5 63.5t-51 49t-73.5 18.5 q-80 0 -123.5 -52t-43.5 -146v-841q0 -58 -28 -88.5t-81 -30.5t-80.5 30t-27.5 89v862q0 109 47.5 196.5t137 138.5t208.5 51q96 0 177.5 -46t129 -120t47.5 -154q0 -61 -22.5 -112.5t-55.5 -86.5q-35 -38 -52 -67.5t-17 -58.5q0 -33 23.5 -64t79.5 -67q89 -59 130.5 -128 t41.5 -155q0 -98 -36.5 -170t-104.5 -110t-161 -38q-64 0 -109 10z" glyph-name="germandbls" horiz-adv-x="1121" unicode="ß"/>
<glyph d="M666.5 944q81.5 -45 123.5 -126.5t42 -191.5v-478q0 -35 -6.5 -54t-25.5 -33.5t-59 -30.5q-58 -23 -145.5 -35.5t-185.5 -12.5q-99 0 -175 35t-118 100.5t-42 154.5v6q0 155 93 232t248 77q60 0 105.5 -7t94.5 -20v54q0 81 -43.5 122t-118.5 41q-78 0 -152 -25 q-24 -6 -21 -5q-30 -6 -45 -6q-23 0 -43 15t-32 38.5t-12 46.5q0 35 15 60t53 41q43 20 109.5 33.5t141.5 13.5q117 0 198.5 -45zM616 191v199q-89 19 -168 19q-156 0 -156 -117v-2q0 -58 37.5 -91.5t108.5 -33.5q96 0 178 26zM309 1322q0 27 15 51.5t38.5 40t48.5 15.5 q26 0 45 -9t35 -41l86 -140q11 -22 11 -44q0 -35 -23 -60t-61 -25q-39 0 -65 29l-105 121q-25 26 -25 62z" glyph-name="agrave" horiz-adv-x="956" unicode="à"/>
<glyph d="M666.5 944q81.5 -45 123.5 -126.5t42 -191.5v-478q0 -35 -6.5 -54t-25.5 -33.5t-59 -30.5q-58 -23 -145.5 -35.5t-185.5 -12.5q-99 0 -175 35t-118 100.5t-42 154.5v6q0 155 93 232t248 77q60 0 105.5 -7t94.5 -20v54q0 81 -43.5 122t-118.5 41q-78 0 -152 -25 q-24 -6 -21 -5q-30 -6 -45 -6q-23 0 -43 15t-32 38.5t-12 46.5q0 35 15 60t53 41q43 20 109.5 33.5t141.5 13.5q117 0 198.5 -45zM616 191v199q-89 19 -168 19q-156 0 -156 -117v-2q0 -58 37.5 -91.5t108.5 -33.5q96 0 178 26zM536 1133q-26 -29 -65 -29q-38 0 -61 25 t-23 60q0 22 11 44l86 140q16 32 35 41t45 9q25 0 48.5 -15.5t38.5 -40t15 -51.5q0 -36 -25 -62z" glyph-name="aacute" horiz-adv-x="956" unicode="á"/>
<glyph d="M666.5 944q81.5 -45 123.5 -126.5t42 -191.5v-478q0 -35 -6.5 -54t-25.5 -33.5t-59 -30.5q-58 -23 -145.5 -35.5t-185.5 -12.5q-99 0 -175 35t-118 100.5t-42 154.5v6q0 155 93 232t248 77q60 0 105.5 -7t94.5 -20v54q0 81 -43.5 122t-118.5 41q-78 0 -152 -25 q-24 -6 -21 -5q-30 -6 -45 -6q-23 0 -43 15t-32 38.5t-12 46.5q0 35 15 60t53 41q43 20 109.5 33.5t141.5 13.5q117 0 198.5 -45zM616 191v199q-89 19 -168 19q-156 0 -156 -117v-2q0 -58 37.5 -91.5t108.5 -33.5q96 0 178 26zM477 1221l-113 -93q-15 -11 -28 -15t-33 -4 q-35 0 -57 23.5t-22 54.5q0 24 12.5 42t42.5 40l131 105q12 10 31 17.5t36 7.5q15 0 34 -7t34 -18l131 -105q31 -23 43 -40t12 -42q0 -30 -24.5 -54t-55.5 -24q-20 0 -32.5 4t-27.5 15z" glyph-name="acircumflex" horiz-adv-x="956" unicode="â"/>
<glyph d="M666.5 944q81.5 -45 123.5 -126.5t42 -191.5v-478q0 -35 -6.5 -54t-25.5 -33.5t-59 -30.5q-58 -23 -145.5 -35.5t-185.5 -12.5q-99 0 -175 35t-118 100.5t-42 154.5v6q0 155 93 232t248 77q60 0 105.5 -7t94.5 -20v54q0 81 -43.5 122t-118.5 41q-78 0 -152 -25 q-24 -6 -21 -5q-30 -6 -45 -6q-23 0 -43 15t-32 38.5t-12 46.5q0 35 15 60t53 41q43 20 109.5 33.5t141.5 13.5q117 0 198.5 -45zM616 191v199q-89 19 -168 19q-156 0 -156 -117v-2q0 -58 37.5 -91.5t108.5 -33.5q96 0 178 26zM737 1324.5q24 -23.5 24 -55.5q0 -21 -5 -34.5 t-22 -30.5q-36 -37 -74 -56.5t-88 -19.5q-36 0 -59.5 8.5t-51.5 25.5q-19 12 -34 18t-33 6q-17 0 -30.5 -8.5t-44.5 -33.5q-11 -8 -19 -11.5t-20 -3.5q-36 0 -60 23.5t-24 55.5q0 20 5.5 34t23.5 32q36 36 73.5 55t85.5 19q37 0 61 -9t52 -25q19 -12 33.5 -17.5t32.5 -5.5 q17 0 33.5 11t39.5 33q16 13 40 13q37 0 61 -23.5z" glyph-name="atilde" horiz-adv-x="956" unicode="ã"/>
<glyph d="M666.5 944q81.5 -45 123.5 -126.5t42 -191.5v-478q0 -35 -6.5 -54t-25.5 -33.5t-59 -30.5q-58 -23 -145.5 -35.5t-185.5 -12.5q-99 0 -175 35t-118 100.5t-42 154.5v6q0 155 93 232t248 77q60 0 105.5 -7t94.5 -20v54q0 81 -43.5 122t-118.5 41q-78 0 -152 -25 q-24 -6 -21 -5q-30 -6 -45 -6q-23 0 -43 15t-32 38.5t-12 46.5q0 35 15 60t53 41q43 20 109.5 33.5t141.5 13.5q117 0 198.5 -45zM616 191v199q-89 19 -168 19q-156 0 -156 -117v-2q0 -58 37.5 -91.5t108.5 -33.5q96 0 178 26zM245 1310.5q30 29.5 72 29.5t72.5 -29.5 t30.5 -71.5t-30.5 -71.5t-72.5 -29.5t-72 29.5t-30 71.5t30 71.5zM565.5 1310.5q30.5 29.5 72.5 29.5t72 -29.5t30 -71.5t-30 -71.5t-72 -29.5q-43 0 -73 29.5t-30 71.5t30.5 71.5z" glyph-name="adieresis" horiz-adv-x="956" unicode="ä"/>
<glyph d="M666.5 944q81.5 -45 123.5 -126.5t42 -191.5v-478q0 -35 -6.5 -54t-25.5 -33.5t-59 -30.5q-58 -23 -145.5 -35.5t-185.5 -12.5q-99 0 -175 35t-118 100.5t-42 154.5v6q0 155 93 232t248 77q60 0 105.5 -7t94.5 -20v54q0 81 -43.5 122t-118.5 41q-78 0 -152 -25 q-24 -6 -21 -5q-30 -6 -45 -6q-23 0 -43 15t-32 38.5t-12 46.5q0 35 15 60t53 41q43 20 109.5 33.5t141.5 13.5q117 0 198.5 -45zM616 191v199q-89 19 -168 19q-156 0 -156 -117v-2q0 -58 37.5 -91.5t108.5 -33.5q96 0 178 26zM399 1126q-36 22 -57.5 58.5t-21.5 79.5 t21.5 79.5t57.5 58t79 21.5t79.5 -21.5t57.5 -58t21 -79.5t-21 -79.5t-57.5 -58.5t-79.5 -22t-79 22zM514 1227q15 16 15 37t-15 36.5t-36 15.5t-36.5 -15.5t-15.5 -36.5t15.5 -37t36.5 -16t36 16z" glyph-name="aring" horiz-adv-x="956" unicode="å"/>
<glyph d="M1218 935.5q90 -53.5 140.5 -142.5t50.5 -190v-101q0 -43 -25.5 -71.5t-71.5 -28.5h-480v-52q5 -44 29 -81.5t64 -60.5t91 -23q67 0 144 36q13 5 22 10q13 7 22.5 10t22.5 3q46 0 73 -31.5t27 -73.5q0 -25 -10.5 -46.5t-30.5 -35.5q-46 -31 -118 -53t-154 -22 q-128 0 -230 68q-13 -8 -43 -20q-58 -23 -145.5 -35.5t-185.5 -12.5q-99 0 -175 35t-118 100.5t-42 154.5v6q0 155 93 232t248 77q60 0 105.5 -7t94.5 -20v54q0 81 -43.5 122t-118.5 41q-78 0 -152 -25q-24 -6 -21 -5q-30 -6 -45 -6q-23 0 -43 15t-32 38.5t-12 46.5 q0 35 15 60t53 41q43 20 109.5 33.5t141.5 13.5q88 0 156.5 -26t115.5 -75q52 48 122.5 74.5t151.5 26.5q114 0 204 -53.5zM832 626v-46h367v42q0 51 -24.5 91.5t-67 62.5t-93.5 22q-74 0 -124.5 -43.5t-57.5 -114.5v-14zM616 191v199q-89 19 -168 19q-156 0 -156 -117v-2 q0 -58 37.5 -91.5t108.5 -33.5q96 0 178 26z" glyph-name="ae" horiz-adv-x="1467" unicode="æ"/>
<glyph d="M777.5 211q25.5 -31 25.5 -70q0 -48 -42 -79q-46 -33 -98.5 -54t-134.5 -25l-11 -31q74 -9 120 -46t46 -100t-42.5 -112.5t-118.5 -72.5l-34 -10q-10 -3 -22 -3q-28 0 -47.5 22t-20.5 57q0 15 9.5 29t33.5 21l16 5q39 12 59 24t20 34q0 23 -16.5 33.5t-60.5 14.5 q-54 0 -54 46q0 6 2 20l14 73q-95 15 -168.5 67.5t-113.5 131t-40 168.5v262q0 102 50.5 187.5t142 135.5t207.5 50q85 0 150 -23t112 -57q21 -16 31.5 -37t10.5 -43q0 -39 -25.5 -70t-57.5 -31q-21 -1 -33.5 1.5t-24.5 6t-20 5.5q-34 15 -69 25t-84 10q-48 0 -88 -21 t-63 -58.5t-23 -85.5v-252q0 -47 23 -85t62.5 -59t88.5 -21t85 10t68 26q4 1 18 5t28 5.5t32 1.5q32 0 57.5 -31z" glyph-name="ccedilla" horiz-adv-x="874" unicode="ç"/>
<glyph d="M695 935.5q90 -53.5 140.5 -142.5t50.5 -190v-101q0 -43 -25.5 -71.5t-71.5 -28.5h-481v-33q0 -47 23 -89.5t65.5 -68.5t96.5 -26q67 0 144 36q13 5 22 10q14 7 23 10t22 3q46 0 73 -31.5t27 -73.5q0 -25 -10.5 -46.5t-30.5 -35.5q-46 -31 -118 -53t-154 -22 q-113 0 -202.5 51t-139.5 135.5t-50 179.5v267q0 102 49.5 187.5t139 136t203.5 50.5t204 -53.5zM398 776q-42 -22 -66 -62.5t-24 -92.5v-41h368v42q0 51 -24.5 91.5t-67 62.5t-93.5 22t-93 -22zM317 1322q0 27 15 51.5t38.5 40t48.5 15.5q26 0 45 -9t35 -41l86 -140 q11 -22 11 -44q0 -35 -23 -60t-61 -25q-39 0 -65 29l-105 121q-25 26 -25 62z" glyph-name="egrave" horiz-adv-x="944" unicode="è"/>
<glyph d="M695 935.5q90 -53.5 140.5 -142.5t50.5 -190v-101q0 -43 -25.5 -71.5t-71.5 -28.5h-481v-33q0 -47 23 -89.5t65.5 -68.5t96.5 -26q67 0 144 36q13 5 22 10q14 7 23 10t22 3q46 0 73 -31.5t27 -73.5q0 -25 -10.5 -46.5t-30.5 -35.5q-46 -31 -118 -53t-154 -22 q-113 0 -202.5 51t-139.5 135.5t-50 179.5v267q0 102 49.5 187.5t139 136t203.5 50.5t204 -53.5zM398 776q-42 -22 -66 -62.5t-24 -92.5v-41h368v42q0 51 -24.5 91.5t-67 62.5t-93.5 22t-93 -22zM544 1133q-26 -29 -65 -29q-38 0 -61 25t-23 60q0 22 11 44l86 140 q16 32 35 41t45 9q25 0 48.5 -15.5t38.5 -40t15 -51.5q0 -36 -25 -62z" glyph-name="eacute" horiz-adv-x="944" unicode="é"/>
<glyph d="M695 935.5q90 -53.5 140.5 -142.5t50.5 -190v-101q0 -43 -25.5 -71.5t-71.5 -28.5h-481v-33q0 -47 23 -89.5t65.5 -68.5t96.5 -26q67 0 144 36q13 5 22 10q14 7 23 10t22 3q46 0 73 -31.5t27 -73.5q0 -25 -10.5 -46.5t-30.5 -35.5q-46 -31 -118 -53t-154 -22 q-113 0 -202.5 51t-139.5 135.5t-50 179.5v267q0 102 49.5 187.5t139 136t203.5 50.5t204 -53.5zM398 776q-42 -22 -66 -62.5t-24 -92.5v-41h368v42q0 51 -24.5 91.5t-67 62.5t-93.5 22t-93 -22zM486 1221l-113 -93q-15 -11 -28 -15t-33 -4q-35 0 -57 23.5t-22 54.5 q0 24 12.5 42t42.5 40l131 105q12 10 31 17.5t36 7.5q15 0 34 -7t34 -18l131 -105q31 -23 43 -40t12 -42q0 -30 -24.5 -54t-55.5 -24q-20 0 -32.5 4t-27.5 15z" glyph-name="ecircumflex" horiz-adv-x="944" unicode="ê"/>
<glyph d="M695 935.5q90 -53.5 140.5 -142.5t50.5 -190v-101q0 -43 -25.5 -71.5t-71.5 -28.5h-481v-33q0 -47 23 -89.5t65.5 -68.5t96.5 -26q67 0 144 36q13 5 22 10q14 7 23 10t22 3q46 0 73 -31.5t27 -73.5q0 -25 -10.5 -46.5t-30.5 -35.5q-46 -31 -118 -53t-154 -22 q-113 0 -202.5 51t-139.5 135.5t-50 179.5v267q0 102 49.5 187.5t139 136t203.5 50.5t204 -53.5zM398 776q-42 -22 -66 -62.5t-24 -92.5v-41h368v42q0 51 -24.5 91.5t-67 62.5t-93.5 22t-93 -22zM253 1310.5q30 29.5 72 29.5t72.5 -29.5t30.5 -71.5t-30.5 -71.5t-72.5 -29.5 t-72 29.5t-30 71.5t30 71.5zM573.5 1310.5q30.5 29.5 72.5 29.5t72 -29.5t30 -71.5t-30 -71.5t-72 -29.5q-43 0 -73 29.5t-30 71.5t30.5 71.5z" glyph-name="edieresis" horiz-adv-x="944" unicode="ë"/>
<glyph d="M418 863v-763q0 -53 -27.5 -80t-80.5 -27t-80.5 27t-27.5 80v666h-60q-101 0 -101 102t101 102h168q80 0 101 -61q7 -18 7 -46zM109 1320q0 27 15 51.5t38.5 40t48.5 15.5q26 0 45 -9t35 -41l86 -140q11 -22 11 -44q0 -35 -23 -60t-61 -25q-39 0 -65 29l-105 121 q-25 26 -25 62z" glyph-name="igrave" horiz-adv-x="556" unicode="ì"/>
<glyph d="M418 863v-763q0 -53 -27.5 -80t-80.5 -27t-80.5 27t-27.5 80v666h-60q-101 0 -101 102t101 102h168q80 0 101 -61q7 -18 7 -46zM335 1132q-26 -29 -65 -29q-38 0 -61 25t-23 60q0 22 11 44l86 140q16 32 35 41t45 9q25 0 48.5 -15.5t38.5 -40t15 -51.5q0 -36 -25 -62z " glyph-name="iacute" horiz-adv-x="556" unicode="í"/>
<glyph d="M418 863v-763q0 -53 -27.5 -80t-80.5 -27t-80.5 27t-27.5 80v666h-60q-101 0 -101 102t101 102h168q80 0 101 -61q7 -18 7 -46zM277 1220l-113 -93q-15 -11 -28 -15t-33 -4q-35 0 -57 23.5t-22 54.5q0 24 12.5 42t42.5 40l131 105q12 10 31 17.5t36 7.5q15 0 34 -7 t34 -18l131 -105q31 -23 43 -40t12 -42q0 -30 -24.5 -54t-55.5 -24q-20 0 -32.5 4t-27.5 15z" glyph-name="icircumflex" horiz-adv-x="556" unicode="î"/>
<glyph d="M418 863v-763q0 -53 -27.5 -80t-80.5 -27t-80.5 27t-27.5 80v666h-60q-101 0 -101 102t101 102h168q80 0 101 -61q7 -18 7 -46zM44 1308.5q30 29.5 72 29.5t72.5 -29.5t30.5 -71.5t-30.5 -71.5t-72.5 -29.5t-72 29.5t-30 71.5t30 71.5zM364.5 1308.5q30.5 29.5 72.5 29.5 t72 -29.5t30 -71.5t-30 -71.5t-72 -29.5q-43 0 -73 29.5t-30 71.5t30.5 71.5z" glyph-name="idieresis" horiz-adv-x="556" unicode="ï"/>
<glyph d="M833 985q53 -171 53 -381v-253q0 -103 -52.5 -187.5t-143 -133t-198.5 -48.5q-109 0 -199 48.5t-142 133t-52 187.5v240q0 104 52 186.5t142 129.5t199 47q68 0 136 -19q-45 105 -124 172l-37 -35q-37 -45 -72 -45q-15 0 -29 9q-37 24 -37 56q0 27 25 56l29 27 q-26 9 -50 31t-24 56q0 48 32 77.5t80 29.5q20 0 37 -4q46 -11 91 -32l30 28q36 44 72 44q21 0 39 -15q29 -23 29 -49q0 -25 -26 -54l-30 -28q117 -103 170 -274zM670 582q0 49 -23.5 87t-64 59t-90.5 21q-49 0 -89.5 -21t-64 -59t-23.5 -87v-222q0 -49 23.5 -87t63.5 -58.5 t90 -20.5t90.5 20.5t64 58.5t23.5 87v222z" glyph-name="eth" horiz-adv-x="985" unicode="ð"/>
<glyph d="M750.5 942.5q83.5 -46.5 129 -131t45.5 -195.5v-513q0 -54 -28 -82t-82 -28q-52 0 -79 28t-27 82v501q0 84 -47 128t-125 44q-95 0 -183 -26v-647q0 -54 -26.5 -82t-77.5 -28q-55 0 -83.5 28t-28.5 82v741q0 28 12 49t33 30q74 31 169 48.5t205 17.5t193.5 -46.5z M791 1323.5q24 -23.5 24 -55.5q0 -21 -5 -34.5t-22 -30.5q-36 -37 -74 -56.5t-88 -19.5q-36 0 -59.5 8.5t-51.5 25.5q-19 12 -34 18t-33 6q-17 0 -30.5 -8.5t-44.5 -33.5q-11 -8 -19 -11.5t-20 -3.5q-36 0 -60 23.5t-24 55.5q0 20 5.5 34t23.5 32q36 36 73.5 55t85.5 19 q37 0 61 -9t52 -25q19 -12 33.5 -17.5t32.5 -5.5q17 0 33.5 11t39.5 33q16 13 40 13q37 0 61 -23.5z" glyph-name="ntilde" horiz-adv-x="1050" unicode="ñ"/>
<glyph d="M99 618q0 104 52 189t142 133.5t199 48.5t199 -48.5t142.5 -133.5t52.5 -189v-267q0 -103 -52.5 -187.5t-143 -133t-198.5 -48.5q-109 0 -199 48.5t-142 133t-52 187.5v267zM315 360q0 -49 23.5 -87t63.5 -58.5t90 -20.5t90.5 20.5t64 58.5t23.5 87v249q0 49 -23.5 87 t-64 59t-90.5 21q-49 0 -89.5 -21t-64 -59t-23.5 -87v-249zM324 1321q0 27 15 51.5t38.5 40t48.5 15.5q26 0 45 -9t35 -41l86 -140q11 -22 11 -44q0 -35 -23 -60t-61 -25q-39 0 -65 29l-105 121q-25 26 -25 62z" glyph-name="ograve" horiz-adv-x="985" unicode="ò"/>
<glyph d="M99 618q0 104 52 189t142 133.5t199 48.5t199 -48.5t142.5 -133.5t52.5 -189v-267q0 -103 -52.5 -187.5t-143 -133t-198.5 -48.5q-109 0 -199 48.5t-142 133t-52 187.5v267zM315 360q0 -49 23.5 -87t63.5 -58.5t90 -20.5t90.5 20.5t64 58.5t23.5 87v249q0 49 -23.5 87 t-64 59t-90.5 21q-49 0 -89.5 -21t-64 -59t-23.5 -87v-249zM550 1133q-26 -29 -65 -29q-38 0 -61 25t-23 60q0 22 11 44l86 140q16 32 35 41t45 9q25 0 48.5 -15.5t38.5 -40t15 -51.5q0 -36 -25 -62z" glyph-name="oacute" horiz-adv-x="985" unicode="ó"/>
<glyph d="M99 618q0 104 52 189t142 133.5t199 48.5t199 -48.5t142.5 -133.5t52.5 -189v-267q0 -103 -52.5 -187.5t-143 -133t-198.5 -48.5q-109 0 -199 48.5t-142 133t-52 187.5v267zM315 360q0 -49 23.5 -87t63.5 -58.5t90 -20.5t90.5 20.5t64 58.5t23.5 87v249q0 49 -23.5 87 t-64 59t-90.5 21q-49 0 -89.5 -21t-64 -59t-23.5 -87v-249zM492 1221l-113 -93q-15 -11 -28 -15t-33 -4q-35 0 -57 23.5t-22 54.5q0 24 12.5 42t42.5 40l131 105q12 10 31 17.5t36 7.5q15 0 34 -7t34 -18l131 -105q31 -23 43 -40t12 -42q0 -30 -24.5 -54t-55.5 -24 q-20 0 -32.5 4t-27.5 15z" glyph-name="ocircumflex" horiz-adv-x="985" unicode="ô"/>
<glyph d="M99 618q0 104 52 189t142 133.5t199 48.5t199 -48.5t142.5 -133.5t52.5 -189v-267q0 -103 -52.5 -187.5t-143 -133t-198.5 -48.5q-109 0 -199 48.5t-142 133t-52 187.5v267zM315 360q0 -49 23.5 -87t63.5 -58.5t90 -20.5t90.5 20.5t64 58.5t23.5 87v249q0 49 -23.5 87 t-64 59t-90.5 21q-49 0 -89.5 -21t-64 -59t-23.5 -87v-249zM751 1323.5q24 -23.5 24 -55.5q0 -21 -5 -34.5t-22 -30.5q-36 -37 -74 -56.5t-88 -19.5q-36 0 -59.5 8.5t-51.5 25.5q-19 12 -34 18t-33 6q-17 0 -30.5 -8.5t-44.5 -33.5q-11 -8 -19 -11.5t-20 -3.5 q-36 0 -60 23.5t-24 55.5q0 20 5.5 34t23.5 32q36 36 73.5 55t85.5 19q37 0 61 -9t52 -25q19 -12 33.5 -17.5t32.5 -5.5q17 0 33.5 11t39.5 33q16 13 40 13q37 0 61 -23.5z" glyph-name="otilde" horiz-adv-x="985" unicode="õ"/>
<glyph d="M99 618q0 104 52 189t142 133.5t199 48.5t199 -48.5t142.5 -133.5t52.5 -189v-267q0 -103 -52.5 -187.5t-143 -133t-198.5 -48.5q-109 0 -199 48.5t-142 133t-52 187.5v267zM315 360q0 -49 23.5 -87t63.5 -58.5t90 -20.5t90.5 20.5t64 58.5t23.5 87v249q0 49 -23.5 87 t-64 59t-90.5 21q-49 0 -89.5 -21t-64 -59t-23.5 -87v-249zM260 1310.5q30 29.5 72 29.5t72.5 -29.5t30.5 -71.5t-30.5 -71.5t-72.5 -29.5t-72 29.5t-30 71.5t30 71.5zM580.5 1310.5q30.5 29.5 72.5 29.5t72 -29.5t30 -71.5t-30 -71.5t-72 -29.5q-43 0 -73 29.5t-30 71.5 t30.5 71.5z" glyph-name="odieresis" horiz-adv-x="985" unicode="ö"/>
<glyph d="M352 765q-27 16 -43 43t-16 58q0 48 34.5 82.5t82.5 34.5t82.5 -34.5t34.5 -82.5q0 -31 -16 -58t-43 -43t-58 -16t-58 16zM65.5 411.5q-28.5 27.5 -28.5 80.5t28.5 80.5t81.5 27.5h525q54 0 81.5 -27.5t27.5 -80.5q0 -108 -109 -108h-525q-53 0 -81.5 27.5zM328 47.5 q-34 34.5 -34 82.5q0 47 34 81.5t82 34.5t82.5 -34.5t34.5 -81.5q0 -48 -34.5 -82.5t-82.5 -34.5t-82 34.5z" glyph-name="divide" horiz-adv-x="821" unicode="÷"/>
<glyph d="M864.5 742q21.5 -59 21.5 -124v-267q0 -103 -52.5 -187.5t-143 -133t-198.5 -48.5q-95 0 -175 37l-20 -34q-38 -61 -82 -58q-41 0 -63.5 18.5t-22.5 47.5q0 26 16 51l41 71q-41 48 -64 108.5t-23 127.5v267q0 104 52 189t142 133.5t199 48.5q96 0 180 -39l19 32 q19 31 39.5 47.5t45.5 16.5q40 0 63 -20.5t23 -51.5q0 -27 -16 -52l-43 -73q40 -48 61.5 -107zM316 338l248 425q-32 13 -72 13q-49 0 -89.5 -21t-64 -59t-23.5 -87v-249q0 -15 1 -22zM670 609v12l-244 -416q31 -11 66 -11q50 0 90.5 20.5t64 58.5t23.5 87v249z" glyph-name="oslash" horiz-adv-x="985" unicode="ø"/>
<glyph d="M305 29.5q-85 47.5 -132.5 132.5t-47.5 193v512q0 54 28 82t82 28q52 0 79 -28t27 -82v-507q0 -50 23.5 -87.5t64 -58t91.5 -20.5q54 0 94.5 7t81.5 19v647q0 54 26.5 82t77.5 28q55 0 83.5 -28t28.5 -82v-741q0 -28 -12 -49t-33 -30q-155 -65 -368 -65q-109 0 -194 47.5 zM350 1321q0 27 15 51.5t38.5 40t48.5 15.5q26 0 45 -9t35 -41l86 -140q11 -22 11 -44q0 -35 -23 -60t-61 -25q-39 0 -65 29l-105 121q-25 26 -25 62z" glyph-name="ugrave" horiz-adv-x="1050" unicode="ù"/>
<glyph d="M305 29.5q-85 47.5 -132.5 132.5t-47.5 193v512q0 54 28 82t82 28q52 0 79 -28t27 -82v-507q0 -50 23.5 -87.5t64 -58t91.5 -20.5q54 0 94.5 7t81.5 19v647q0 54 26.5 82t77.5 28q55 0 83.5 -28t28.5 -82v-741q0 -28 -12 -49t-33 -30q-155 -65 -368 -65q-109 0 -194 47.5 zM577 1133q-26 -29 -65 -29q-38 0 -61 25t-23 60q0 22 11 44l86 140q16 32 35 41t45 9q25 0 48.5 -15.5t38.5 -40t15 -51.5q0 -36 -25 -62z" glyph-name="uacute" horiz-adv-x="1050" unicode="ú"/>
<glyph d="M305 29.5q-85 47.5 -132.5 132.5t-47.5 193v512q0 54 28 82t82 28q52 0 79 -28t27 -82v-507q0 -50 23.5 -87.5t64 -58t91.5 -20.5q54 0 94.5 7t81.5 19v647q0 54 26.5 82t77.5 28q55 0 83.5 -28t28.5 -82v-741q0 -28 -12 -49t-33 -30q-155 -65 -368 -65q-109 0 -194 47.5 zM518 1221l-113 -93q-15 -11 -28 -15t-33 -4q-35 0 -57 23.5t-22 54.5q0 24 12.5 42t42.5 40l131 105q12 10 31 17.5t36 7.5q15 0 34 -7t34 -18l131 -105q31 -23 43 -40t12 -42q0 -30 -24.5 -54t-55.5 -24q-20 0 -32.5 4t-27.5 15z" glyph-name="ucircumflex" horiz-adv-x="1050" unicode="û"/>
<glyph d="M305 29.5q-85 47.5 -132.5 132.5t-47.5 193v512q0 54 28 82t82 28q52 0 79 -28t27 -82v-507q0 -50 23.5 -87.5t64 -58t91.5 -20.5q54 0 94.5 7t81.5 19v647q0 54 26.5 82t77.5 28q55 0 83.5 -28t28.5 -82v-741q0 -28 -12 -49t-33 -30q-155 -65 -368 -65q-109 0 -194 47.5 zM286 1310.5q30 29.5 72 29.5t72.5 -29.5t30.5 -71.5t-30.5 -71.5t-72.5 -29.5t-72 29.5t-30 71.5t30 71.5zM606.5 1310.5q30.5 29.5 72.5 29.5t72 -29.5t30 -71.5t-30 -71.5t-72 -29.5q-43 0 -73 29.5t-30 71.5t30.5 71.5z" glyph-name="udieresis" horiz-adv-x="1050" unicode="ü"/>
<glyph d="M883.5 949q28.5 -28 28.5 -82v-819q0 -118 -40.5 -205t-114.5 -133.5t-173 -46.5q-101 0 -173 16q-105 20 -105 103q0 50 23 76t67 26q8 0 24 -2t24 -4q29 -4 56.5 -7t56.5 -3q75 0 112.5 41t41.5 136q-103 -23 -212 -23t-194 47.5t-132.5 132.5t-47.5 193v472 q0 54 28 82t82 28q52 0 79 -28t27 -82v-467q0 -50 23.5 -87.5t64 -58t91.5 -20.5q54 0 94.5 7t81.5 19v607q0 54 26.5 82t77.5 28q55 0 83.5 -28zM577 1133q-26 -29 -65 -29q-38 0 -61 25t-23 60q0 22 11 44l86 140q16 32 35 41t45 9q25 0 48.5 -15.5t38.5 -40t15 -51.5 q0 -36 -25 -62z" glyph-name="yacute" horiz-adv-x="1050" unicode="ý"/>
<glyph d="M755 941q85 -48 132.5 -132.5t47.5 -188.5v-268q0 -98 -51 -183t-141 -136t-202 -51q-111 0 -193 32l16 -49v-200q0 -107 -108 -107q-53 0 -80.5 27t-27.5 80v1471q0 53 27.5 80t80.5 27q108 0 108 -107v-266q101 19 198 19q108 0 193 -48zM719 609q0 49 -23.5 87 t-64.5 59t-91 21t-85.5 -6t-58.5 -12t-32 -8v-530q8 -2 35 -9t63.5 -12t77.5 -5q50 0 91 20.5t64.5 58t23.5 86.5v250z" glyph-name="thorn" horiz-adv-x="1034" unicode="þ"/>
<glyph d="M418 863v-763q0 -53 -27.5 -80t-80.5 -27t-80.5 27t-27.5 80v666h-60q-101 0 -101 102t101 102h168q80 0 101 -61q7 -18 7 -46z" glyph-name="dotlessi" horiz-adv-x="556" unicode="ı"/>
<glyph d="M418 863v-864q0 -159 -74 -248t-213 -89q-30 0 -50 2t-53 9q-50 9 -74 30t-24 66q0 48 23 78.5t66 30.5q11 0 16 -1l28 -4q30 -6 50 -6q45 0 67 34.5t22 107.5v757h-60q-101 0 -101 102t101 102h168q80 0 101 -61q7 -18 7 -46z" glyph-name="uni0237" horiz-adv-x="556" unicode="ȷ"/>
<glyph d="M-459 1318q0 27 15 51.5t38.5 40t48.5 15.5q26 0 45 -9t35 -41l86 -140q11 -22 11 -44q0 -35 -23 -60t-61 -25q-39 0 -65 29l-105 121q-25 26 -25 62z" glyph-name="gravecomb" unicode="̀"/>
<glyph d="M-221 1135q-26 -29 -65 -29q-38 0 -61 25t-23 60q0 22 11 44l86 140q16 32 35 41t45 9q25 0 48.5 -15.5t38.5 -40t15 -51.5q0 -36 -25 -62z" glyph-name="acutecomb" unicode="́"/>
<glyph d="M-400 1221l-113 -93q-15 -11 -28 -15t-33 -4q-35 0 -57 23.5t-22 54.5q0 24 12.5 42t42.5 40l131 105q12 10 31 17.5t36 7.5q15 0 34 -7t34 -18l131 -105q31 -23 43 -40t12 -42q0 -30 -24.5 -54t-55.5 -24q-20 0 -32.5 4t-27.5 15z" glyph-name="uni0302" unicode="̂"/>
<glyph d="M-72 1320.5q24 -23.5 24 -55.5q0 -21 -5 -34.5t-22 -30.5q-36 -37 -74 -56.5t-88 -19.5q-36 0 -59.5 8.5t-51.5 25.5q-19 12 -34 18t-33 6q-17 0 -30.5 -8.5t-44.5 -33.5q-11 -8 -19 -11.5t-20 -3.5q-36 0 -60 23.5t-24 55.5q0 20 5.5 34t23.5 32q36 36 73.5 55t85.5 19 q37 0 61 -9t52 -25q19 -12 33.5 -17.5t32.5 -5.5q17 0 33.5 11t39.5 33q16 13 40 13q37 0 61 -23.5z" glyph-name="tildecomb" unicode="̃"/>
<glyph d="M-253 1305q42 0 64 -21t22 -61q0 -88 -86 -88h-294q-83 0 -83 87q0 41 21 62t62 21h294z" glyph-name="uni0304" unicode="̄"/>
<glyph d="M-435 1156.5q-35 34.5 -35 82.5q0 31 16 58.5t43.5 43.5t58.5 16q48 0 82 -35t34 -83t-34 -82.5t-82 -34.5t-83 34.5z" glyph-name="uni0307" unicode="̇"/>
<glyph d="M-627 1309.5q30 29.5 72 29.5t72.5 -29.5t30.5 -71.5t-30.5 -71.5t-72.5 -29.5t-72 29.5t-30 71.5t30 71.5zM-306.5 1309.5q30.5 29.5 72.5 29.5t72 -29.5t30 -71.5t-30 -71.5t-72 -29.5q-43 0 -73 29.5t-30 71.5t30.5 71.5z" glyph-name="uni0308" unicode="̈"/>
<glyph d="M-350 1122q-36 22 -57.5 58.5t-21.5 79.5t21.5 79.5t57.5 58t79 21.5t79.5 -21.5t57.5 -58t21 -79.5t-21 -79.5t-57.5 -58.5t-79.5 -22t-79 22zM-235 1223q15 16 15 37t-15 36.5t-36 15.5t-36.5 -15.5t-15.5 -36.5t15.5 -37t36.5 -16t36 16z" glyph-name="uni030A" unicode="̊"/>
<glyph d="M-242 13h113l-22 -60q74 -9 120 -46t46 -100t-42.5 -112.5t-118.5 -72.5l-34 -10q-11 -3 -22 -3q-28 0 -47.5 22t-20.5 57q0 15 9.5 29t33.5 21l16 5q39 12 59 24t20 34q0 23 -16.5 33.5t-60.5 14.5q-54 0 -54 46q0 6 2 20z" glyph-name="uni0327" unicode="̧"/>
<glyph d="M897 949q28 -28 28 -82v-698q0 -53 -17 -88.5t-68 -53.5q-44 -16 -125 -30.5t-161 -14.5q-126 0 -200 95v-316q0 -52 -26.5 -79.5t-78.5 -27.5q-55 0 -83 29t-28 84v1100q0 54 28.5 82t83.5 28q51 0 77.5 -28t26.5 -82v-500q0 -53 23.5 -93t63.5 -61.5t89 -21.5 q59 0 98.5 8t80.5 20v648q0 54 27 82t79 28q54 0 82 -28z" glyph-name="uni03BC" horiz-adv-x="1063" unicode="μ"/>
<glyph d="M222 62q-17 -35 -34.5 -51.5t-43.5 -16.5q-45 0 -71 22t-26 58q0 26 13 53l524 1125q12 27 34 42.5t49 15.5q47 0 69 -20t22 -55q0 -33 -16 -69z" glyph-name="fraction" horiz-adv-x="808" unicode="⁄"/>
<glyph d="M196 -191.5q-20 19.5 -20 57.5v428l-17 -8q-5 -5 -12 -6t-21 -1q-31 0 -50.5 23t-19.5 52q1 21 11 38.5t28 27.5l110 66q15 9 24.5 11.5t25.5 4.5q37 0 55.5 -21.5t18.5 -52.5l-1 -562q0 -38 -18.5 -57.5t-54.5 -19.5q-39 0 -59 19.5z" glyph-name="uni2081" horiz-adv-x="501" unicode="₁"/>
<glyph d="M80.5 -183.5q-22.5 23.5 -22.5 55.5q0 13 6.5 27.5t16.5 26.5l234 264q26 29 38 51.5t12 49.5v3q0 26 -18 43.5t-57 17.5q-31 0 -52 -10t-40 -27q-5 -3 -14 -8.5t-16.5 -8.5t-16.5 -3q-35 0 -57.5 21.5t-22.5 49.5q0 24 9 39.5t26 28.5q28 26 77 47.5t119 21.5 q63 0 112 -26.5t76 -72.5t27 -102v-19q0 -92 -86 -186l-143 -155h168q77 0 77 -75q0 -38 -19.5 -57.5t-57.5 -19.5h-321q-32 0 -54.5 23.5z" glyph-name="uni2082" horiz-adv-x="584" unicode="₂"/>
<glyph d="M488 186.5q49 -52.5 49 -145.5v-22q0 -68 -32.5 -121.5t-89 -84t-124.5 -30.5q-44 0 -78 11.5t-67 31.5q-39 19 -57 38.5t-18 50.5q0 28 19 51.5t56 23.5q18 0 50 -18q32 -21 53 -31t50 -10q37 0 61.5 25.5t24.5 66.5v18q0 36 -24 56t-66 20h-52q-31 0 -52 21t-21 53 q0 16 5.5 29.5t16.5 21.5l115 107h-149q-38 0 -58 18t-20 52q0 38 20 58t58 20h277q39 0 58.5 -19t19.5 -52q0 -21 -10 -39.5t-27 -31.5l-123 -111q86 -5 135 -57.5z" glyph-name="uni2083" horiz-adv-x="604" unicode="₃"/>
<glyph d="M80.5 16.5q-22.5 23.5 -22.5 55.5q0 13 6.5 27.5t16.5 26.5l234 264q26 29 38 51.5t12 49.5v3q0 26 -18 43.5t-57 17.5q-31 0 -52 -10t-40 -27q-5 -3 -14 -8.5t-16.5 -8.5t-16.5 -3q-35 0 -57.5 21.5t-22.5 49.5q0 24 9 39.5t26 28.5q28 26 77 47.5t119 21.5 q63 0 112 -26.5t76 -72.5t27 -102v-19q0 -92 -86 -186l-143 -155h168q77 0 77 -75q0 -38 -19.5 -57.5t-57.5 -19.5h-321q-32 0 -54.5 23.5z" glyph-name="two.dnom" horiz-adv-x="584"/>
<glyph d="M340 12.5q-20 19.5 -20 56.5v71h-206q-34 0 -55.5 22t-21.5 64q0 16 8 37l153 389q8 23 27.5 35t45.5 12q37 0 56.5 -15.5t19.5 -45.5q0 -22 -8 -43l-124 -302h105v46q0 38 20 57.5t58 19.5q37 0 55.5 -19.5t18.5 -57.5v-46h14q36 0 55 -19.5t19 -56.5t-19 -57t-55 -20 h-14v-71q0 -37 -18.5 -56.5t-55.5 -19.5q-38 0 -58 19.5z" glyph-name="four.dnom" horiz-adv-x="584"/>
<glyph d="M96 1055q0 73 31.5 133t87 94t123.5 34q69 0 125 -34t88 -94t32 -133v-202q0 -73 -32 -132.5t-88 -93.5t-125 -34q-68 0 -123.5 34t-87 93.5t-31.5 132.5v202zM249 860q0 -51 23 -82.5t66 -31.5q44 0 68.5 31.5t24.5 82.5v189q0 54 -24.5 84.5t-68.5 30.5 q-42 0 -65.5 -31t-23.5 -84v-189z" glyph-name="zero.numr" horiz-adv-x="679"/>
<glyph d="M196 618.5q-20 19.5 -20 57.5v428l-17 -8q-5 -5 -12 -6t-21 -1q-31 0 -50.5 23t-19.5 52q1 21 11 38.5t28 27.5l110 66q15 9 24.5 11.5t25.5 4.5q37 0 55.5 -21.5t18.5 -52.5l-1 -562q0 -38 -18.5 -57.5t-54.5 -19.5q-39 0 -59 19.5z" glyph-name="one.numr" horiz-adv-x="501"/>
<glyph d="M488 996.5q49 -52.5 49 -145.5v-22q0 -68 -32.5 -121.5t-89 -84t-124.5 -30.5q-44 0 -78 11.5t-67 31.5q-39 19 -57 38.5t-18 50.5q0 28 19 51.5t56 23.5q18 0 50 -18q32 -21 53 -31t50 -10q37 0 61.5 25.5t24.5 66.5v18q0 36 -24 56t-66 20h-52q-31 0 -52 21t-21 53 q0 16 5.5 29.5t16.5 21.5l115 107h-149q-38 0 -58 18t-20 52q0 38 20 58t58 20h277q39 0 58.5 -19t19.5 -52q0 -21 -10 -39.5t-27 -31.5l-123 -111q86 -5 135 -57.5z" glyph-name="three.numr" horiz-adv-x="604"/>
<glyph d="M-627 1622.5q30 29.5 72 29.5t72.5 -29.5t30.5 -71.5t-30.5 -71.5t-72.5 -29.5t-72 29.5t-30 71.5t30 71.5zM-306.5 1622.5q30.5 29.5 72.5 29.5t72 -29.5t30 -71.5t-30 -71.5t-72 -29.5q-43 0 -73 29.5t-30 71.5t30.5 71.5z" glyph-name="uni0308.case"/>
<glyph d="M-447 1622q0 27 15 51.5t38.5 40t48.5 15.5q26 0 45 -9t35 -41l86 -140q11 -22 11 -44q0 -35 -23 -60t-61 -25q-39 0 -65 29l-105 121q-25 26 -25 62z" glyph-name="gravecomb.case"/>
<glyph d="M-221 1445q-26 -29 -65 -29q-38 0 -61 25t-23 60q0 22 11 44l86 140q16 32 35 41t45 9q25 0 48.5 -15.5t38.5 -40t15 -51.5q0 -36 -25 -62z" glyph-name="acutecomb.case"/>
<glyph d="M-399 1508l-113 -93q-16 -11 -28.5 -15t-32.5 -4t-38.5 12.5t-30 31t-11.5 34.5q0 24 13 42t43 40l131 105q13 10 31.5 17.5t35.5 7.5q14 0 33.5 -7t33.5 -18l131 -105q31 -23 43.5 -40t12.5 -42q0 -16 -12.5 -34.5t-31.5 -31t-36 -12.5q-20 0 -32.5 4t-28.5 15z" glyph-name="uni0302.case"/>
<glyph d="M-350 1465q-36 22 -57.5 58.5t-21.5 79.5t21.5 79.5t57.5 58t79 21.5t79.5 -21.5t57.5 -58t21 -79.5t-21 -79.5t-57.5 -58.5t-79.5 -22t-79 22zM-235 1566q15 16 15 37t-15 36.5t-36 15.5t-36.5 -15.5t-15.5 -36.5t15.5 -37t36.5 -16t36 16z" glyph-name="uni030A.case"/>
<glyph d="M-72 1654.5q24 -23.5 24 -55.5q0 -21 -5 -34.5t-22 -30.5q-36 -37 -74 -56.5t-88 -19.5q-36 0 -59.5 8.5t-51.5 25.5q-19 12 -34 18t-33 6q-17 0 -30.5 -8.5t-44.5 -33.5q-11 -8 -19 -11.5t-20 -3.5q-36 0 -60 23.5t-24 55.5q0 20 5.5 34t23.5 32q36 36 73.5 55t85.5 19 q37 0 61 -9t52 -25q19 -12 33.5 -17.5t32.5 -5.5q17 0 33.5 11t39.5 33q16 13 40 13q37 0 61 -23.5z" glyph-name="tildecomb.case"/>
</font>
</defs>
</svg>
