<?xml version="1.0" encoding="UTF-8"?>
<!DOCTYPE svg  PUBLIC '-//W3C//DTD SVG 1.1//EN'  'http://www.w3.org/Graphics/SVG/1.1/DTD/svg11.dtd'>
<svg version="1.1" xmlns="http://www.w3.org/2000/svg">
<defs>
<font id="Iconic-Light" horiz-adv-x="0">
<font-face font-family="Iconic Light" font-weight="300" ascent="1638" bbox="-600 -365 1607 1714" cap-height="1313" descent="-410" panose-1="2 15 5 6 2 2 0 0 0 4" underline-position="-154" underline-thickness="102" unicode-range="U+0020-2083" units-per-em="2048" x-height="956"/>
<missing-glyph/>
<glyph glyph-name="space" horiz-adv-x="461" unicode=" "/>
<glyph d="M240.5 301q-11.5 12 -11.5 35v931q0 22 12 34t33 12q22 0 33.5 -12t11.5 -34v-931q0 -47 -45 -47q-22 0 -33.5 12zM223.5 9q-20.5 20 -20.5 49q0 30 20.5 50.5t49.5 20.5q31 0 51 -20.5t20 -50.5q0 -29 -20 -49t-51 -20q-29 0 -49.5 20z" glyph-name="exclam" horiz-adv-x="547" unicode="!"/>
<glyph d="M177 984q0 -20 -12 -31.5t-32 -11.5t-30.5 11.5t-10.5 31.5v280q-1 45 41 45q44 0 44 -45v-280zM436 984q0 -20 -12 -31.5t-32 -11.5q-19 0 -30 11.5t-11 31.5v280q-3 45 41 45t44 -45v-280z" glyph-name="quotedbl" horiz-adv-x="528" unicode='"'/>
<glyph d="M1038 911q12 -11 12 -33q0 -46 -43 -46h-162l-62 -371h176q22 0 34 -12t12 -35q0 -43 -42 -43h-196l-56 -332q-7 -41 -43 -41q-19 0 -33.5 12t-14.5 35q0 6 1 10l54 316h-318l-56 -332q-6 -41 -43 -41q-19 0 -33.5 12t-14.5 35q0 6 1 10l54 316h-144q-47 0 -47 47 q0 43 47 43h159l63 371h-178q-46 0 -46 43q0 47 45 47h194l61 356q3 15 16 25t29 10q20 0 32 -12.5t12 -34.5q0 -6 -2 -18l-55 -326h317l61 356q2 15 15 25t29 10q21 0 33 -12.5t12 -34.5q0 -6 -2 -18l-55 -326h143q22 0 34 -11zM753 832h-318l-62 -371h317z" glyph-name="numbersign" horiz-adv-x="1125" unicode="#"/>
<glyph d="M801.5 170q-43.5 -75 -121.5 -123t-177 -59v-103q0 -19 -10 -29.5t-28 -10.5q-41 0 -41 40v101q-97 4 -180 38t-146 79q-22 14 -22 36q0 18 13.5 33.5t28.5 15.5q8 0 14 -2t19 -10q149 -101 302 -101q86 0 155 34.5t108 93.5t39 130q0 82 -38 138.5t-95.5 92.5t-159.5 86 l-25 12q-105 50 -168.5 87.5t-114 101t-50.5 150.5q0 97 45 168t118.5 110.5t156.5 45.5v81q0 20 11 30.5t31 10.5q37 0 37 -41v-82q80 -7 148.5 -35.5t140.5 -85.5q16 -12 16 -31q0 -18 -13 -32.5t-31 -14.5q-8 0 -15.5 3.5t-19.5 11.5q-71 54 -134.5 75.5t-144.5 21.5 q-62 0 -121 -26t-97 -78.5t-38 -128.5q0 -60 36 -105t84 -74t121 -63l43 -20l37 -18q113 -57 177.5 -100.5t108.5 -114.5t44 -176q0 -88 -43.5 -163z" glyph-name="dollar" horiz-adv-x="934" unicode="$"/>
<glyph d="M112 1095q0 63 26.5 113.5t72.5 79.5t103 29q58 0 104.5 -29t73.5 -79.5t27 -113.5v-246q0 -62 -27 -112.5t-73.5 -79t-104.5 -28.5q-57 0 -103 28.5t-72.5 79t-26.5 112.5v246zM175 852q0 -69 39 -114.5t100 -45.5q63 0 102.5 45.5t39.5 114.5v241q0 71 -40 116t-102 45 q-61 0 -100 -45t-39 -116v-241zM388 27q-13 -30 -35 -26q-17 1 -26.5 9.5t-9.5 22.5q0 12 5 21l577 1232q5 12 15.5 19t22.5 6q34 -3 34 -31q0 -14 -7 -28zM769 449q0 63 26.5 113.5t72.5 79.5t103 29q58 0 104.5 -29t73.5 -79.5t27 -113.5v-246q0 -62 -27 -112.5t-73.5 -79 t-104.5 -28.5q-57 0 -103 28.5t-72.5 79t-26.5 112.5v246zM832 206q0 -69 39 -114.5t100 -45.5q63 0 102.5 45.5t39.5 114.5v241q0 71 -40 116t-102 45q-61 0 -100 -45t-39 -116v-241z" glyph-name="percent" horiz-adv-x="1282" unicode="%"/>
<glyph d="M1156.5 92q6.5 -11 6.5 -25q0 -21 -16 -33q-56 -30 -90.5 -39.5t-79.5 -9.5q-72 0 -124.5 29.5t-83.5 84.5q-48 -47 -106 -73t-131 -26h-82q-105 0 -184 39t-122.5 117.5t-43.5 191.5q0 119 51 205t149 122q-95 33 -147.5 115t-52.5 193q0 157 92.5 243.5t264.5 86.5h75 q83 0 160.5 -31.5t143.5 -82.5q30 -21 27 -47q-1 -14 -14.5 -25.5t-27.5 -11.5q-9 0 -14 4q-64 48 -131.5 75.5t-144.5 27.5h-76q-123 0 -193.5 -64t-70.5 -180q0 -79 32 -136.5t89.5 -88t133.5 -30.5h285l85 1h178q19 0 30 -10.5t11 -30.5q0 -19 -11 -30t-30 -11h-173 l-5 -3v-363q0 -98 44 -153t127 -55q26 0 53 6.5t74 28.5q10 4 15 4q3 0 9 -2q12 -2 18.5 -13zM647.5 112q45.5 21 93.5 63q-10 41 -10 93v364h-278q-79 0 -138 -33.5t-91.5 -96t-32.5 -147.5q0 -123 71 -193.5t193 -70.5h85q62 0 107.5 21z" glyph-name="ampersand" horiz-adv-x="1174" unicode="&amp;"/>
<glyph d="M177 988q0 -22 -11.5 -33.5t-31.5 -11.5t-31.5 11.5t-11.5 33.5v281q0 22 11 33.5t32 11.5t32 -11.5t11 -33.5v-281z" glyph-name="quotesingle" horiz-adv-x="269" unicode="'"/>
<glyph d="M336 -264q-76 55 -120 136.5t-63 204t-19 308.5v310q0 186 19.5 310.5t63.5 206.5t120 133q22 19 41 19q21 0 34 -13.5t13 -26.5q0 -21 -19 -40q-71 -48 -109.5 -117.5t-55 -181t-16.5 -292.5v-305q0 -179 17 -289t56 -179t108 -121q18 -19 18 -40q0 -13 -12.5 -27 t-32.5 -14q-24 0 -43 18z" glyph-name="parenleft" horiz-adv-x="536" unicode="("/>
<glyph d="M124.5 -268q-12.5 14 -12.5 27q0 21 18 40q69 52 108 121t56 179t17 289v305q0 181 -16.5 292.5t-55 181t-109.5 117.5q-19 19 -19 40q0 13 13 26.5t34 13.5q19 0 41 -19q76 -51 120 -133t63.5 -206.5t19.5 -310.5v-310q0 -186 -19 -308.5t-63 -204t-120 -136.5 q-19 -18 -43 -18q-20 0 -32.5 14z" glyph-name="parenright" horiz-adv-x="536" unicode=")"/>
<glyph d="M317 833q0 84 5 197q-71 -48 -163 -104q-13 -9 -24 -9q-13 0 -22 13q-7 12 -7 20q0 15 20 26q96 55 175 97q-70 37 -154 85l-18 10q-23 10 -23 26q0 8 8 21q10 13 21 13q13 0 27 -11l103 -65l57 -36q-4 91 -4 197q0 33 29 33q30 0 28 -35q0 -85 -5 -198q61 41 164 104 q14 9 25 9q14 0 21 -12t7 -19q0 -15 -22 -27q-45 -26 -139 -78l-31 -17q80 -42 171 -95q19 -10 19 -26q0 -11 -7 -21q-7 -12 -20 -12q-10 0 -24 9q-77 47 -164 104q5 -112 5 -198q0 -33 -28 -33q-30 0 -30 32z" glyph-name="asterisk" horiz-adv-x="684" unicode="*"/>
<glyph d="M787 484q0 -42 -47 -42h-293v-293q0 -22 -12 -34.5t-32 -12.5t-31 12t-11 35v293h-292q-47 0 -47 42q0 45 47 45h292v292q0 47 42 47q44 0 44 -47v-292h293q47 0 47 -45z" glyph-name="plus" horiz-adv-x="808" unicode="+"/>
<glyph d="M74 -263q-10 11 -10 28q0 5 2 13l103 328q4 16 18.5 25t29.5 9q16 -1 30 -15t14 -32q0 -10 -4 -18l-119 -320q-12 -29 -37 -29q-17 0 -27 11z" glyph-name="comma" horiz-adv-x="346" unicode=","/>
<glyph d="M101.5 449.5q-12.5 11.5 -12.5 30.5q0 21 12.5 32t34.5 11h564q23 0 35 -11t12 -32q0 -42 -47 -42h-564q-22 0 -34.5 11.5z" glyph-name="hyphen" horiz-adv-x="838" unicode="-"/>
<glyph d="M140.5 9q-20.5 20 -20.5 49q0 30 20.5 50.5t49.5 20.5q30 0 50 -20.5t20 -50.5q0 -29 -19.5 -49t-50.5 -20q-29 0 -49.5 20z" glyph-name="period" horiz-adv-x="368" unicode="."/>
<glyph d="M148 32q-4 -15 -17 -23.5t-28 -8.5q-19 0 -33 11.5t-14 28.5q0 8 3 15l394 1222q6 18 17.5 27t26.5 9q21 0 35 -11t14 -30q0 -9 -3 -18z" glyph-name="slash" horiz-adv-x="603" unicode="/"/>
<glyph d="M112 905q0 121 50 217t137.5 150t196.5 54t197.5 -54t138.5 -150t50 -217v-501q0 -118 -50.5 -214t-138.5 -150.5t-197 -54.5q-108 0 -196 54.5t-138 150.5t-50 214v501zM202 408q0 -96 38 -171.5t105 -118.5t151 -43q85 0 152.5 43t105.5 118.5t38 171.5v495 q0 97 -38 173t-105.5 118t-152.5 42q-84 0 -151 -42t-105 -118t-38 -173v-495z" glyph-name="zero" horiz-adv-x="994" unicode="0"/>
<glyph d="M289 9.5q-12 11.5 -12 33.5v1150l-148 -97q-13 -5 -22 -5q-19 0 -29.5 13.5t-10.5 31.5q2 27 21 38l204 131q14 8 31 8q44 0 44 -39v-1231q0 -22 -11.5 -33.5t-32.5 -11.5q-22 0 -34 11.5z" glyph-name="one" horiz-adv-x="570" unicode="1"/>
<glyph d="M62 13q-12 13 -12 33q0 21 11 33l499 567q72 83 110.5 161t38.5 161v20q1 65 -32.5 122t-92.5 91.5t-131 34.5q-104 0 -168 -41.5t-114 -102.5q-9 -9 -15.5 -13t-18.5 -4q-19 0 -32.5 9.5t-13.5 26.5q0 24 16 40q65 77 146 126t204 49q96 0 174.5 -44.5t123 -120 t44.5 -164.5v-32q1 -97 -42 -186.5t-123 -180.5l-448 -508h629q46 0 46 -43q0 -23 -12 -35t-34 -12h-722q-19 0 -31 13z" glyph-name="two" horiz-adv-x="920" unicode="2"/>
<glyph d="M640 815q89 -44 139.5 -128t50.5 -199v-95q0 -110 -54.5 -204t-149.5 -149t-211 -55q-80 0 -142 20.5t-102.5 47.5t-81.5 63q-20 10 -29 21t-9 28t11.5 31t30.5 14q7 0 13.5 -2.5t21.5 -12.5q44 -39 75.5 -61.5t87 -41.5t131.5 -19q89 0 162 44t114.5 118t41.5 160v92 q0 91 -42.5 157.5t-116.5 101.5t-166 35h-55q-17 0 -28 11.5t-12 29.5q0 21 14 36l336 365h-542q-47 0 -47 43q0 22 12 33.5t35 11.5h620q42 0 42 -44q0 -23 -22 -43l-337 -365h8q112 0 201 -44z" glyph-name="three" horiz-adv-x="900" unicode="3"/>
<glyph d="M644.5 12.5q-11.5 12.5 -11.5 34.5v275h-544q-22 0 -35 13t-13 37q0 12 6 24l420 888q12 28 43 28q22 0 34 -10t12 -27q0 -12 -6 -27l-402 -836h485v226q0 47 45 47t45 -47v-226h131q45 0 45 -46q0 -44 -45 -44h-131v-275q0 -22 -11.5 -34.5t-33.5 -12.5t-33.5 12.5z" glyph-name="four" horiz-adv-x="936" unicode="4"/>
<glyph d="M286.5 23.5q-84.5 38.5 -154.5 100.5q-22 14 -22 38l1 8q2 14 15.5 26.5t30.5 12.5q12 0 22 -6q2 -1 18 -15q35 -30 69.5 -53.5t91.5 -42.5t130 -19q92 0 164.5 44t113 120.5t40.5 169.5v45q0 148 -90 223.5t-254 75.5q-66 0 -128 -18.5t-159 -54.5q-19 -1 -31.5 12 t-12.5 32l-1 543q-1 22 12 34t37 12h616q22 0 34 -12t12 -34q0 -45 -46 -45h-573v-445q55 28 127.5 47t136.5 19q122 0 214 -42.5t144 -128.5t52 -213v-50q0 -119 -53 -215.5t-146.5 -151.5t-209.5 -55t-200.5 38.5z" glyph-name="five" horiz-adv-x="970" unicode="5"/>
<glyph d="M677.5 838.5q85.5 -43.5 135 -123t49.5 -182.5v-187q0 -108 -49 -190t-134.5 -126.5t-191.5 -44.5t-191 44.5t-134.5 126t-49.5 190.5v165q0 13 2 37l-1 376q0 124 50.5 214.5t140.5 138.5t208 48q55 0 103 -7t110 -28q18 -6 25 -15.5t7 -25.5q0 -20 -12 -32.5t-32 -11.5 q-67 19 -107.5 26t-90.5 7q-101 0 -172 -40t-106.5 -108t-35.5 -152v-184q52 60 126.5 94t160.5 34q104 0 189.5 -43.5zM772 525q0 80 -37.5 141t-102.5 94t-145 33q-79 0 -144 -33.5t-102.5 -95t-37.5 -141.5v-166q0 -87 37.5 -151t102 -98.5t144.5 -34.5t145 34.5 t102.5 98.5t37.5 151v168z" glyph-name="six" horiz-adv-x="940" unicode="6"/>
<glyph d="M215 9.5q-12 9.5 -12 27.5q0 13 8 31l461 1152h-584q-22 0 -34 12t-12 34q0 21 12 33t34 12h664q18 0 30 -13t12 -31q0 -14 -6 -25l-498 -1214q-13 -28 -40 -28q-23 0 -35 9.5z" glyph-name="seven" horiz-adv-x="839" unicode="7"/>
<glyph d="M702 671q55 -47 87.5 -114.5t32.5 -146.5v-75q0 -95 -51.5 -175t-139 -126t-191.5 -46q-103 0 -190 46t-138.5 125t-52.5 174v77q0 79 32.5 146t87 114t120.5 69q-71 34 -113.5 97t-43.5 143v67q0 79 39.5 143t107.5 100.5t150 36.5t150 -36.5t107.5 -100t39.5 -142.5 v-69q-1 -79 -42.5 -141t-111.5 -96q65 -23 120 -70zM251.5 880q29.5 -47 79 -74t109.5 -27t110 27.5t79 74.5t29 104v63q-1 56 -30.5 102.5t-79 73.5t-108.5 27q-60 0 -110 -27t-79 -74t-29 -104v-62q0 -57 29.5 -104zM731 421q-1 75 -40 137t-105.5 98t-146.5 36 q-79 0 -146 -36t-106 -98.5t-39 -138.5v-70q1 -76 41 -138t106 -98t145 -36q80 0 146.5 36.5t105.5 100t39 140.5v67z" glyph-name="eight" horiz-adv-x="881" unicode="8"/>
<glyph d="M819 793q0 -13 -2 -37l1 -370q0 -123 -50 -213t-139 -137.5t-206 -47.5q-55 0 -101.5 7t-108.5 28q-17 6 -24.5 16t-7.5 26q0 18 12 31t32 11q65 -19 105 -25.5t90 -6.5q100 0 170 39.5t105.5 107t35.5 149.5v183q-51 -60 -124 -93.5t-158 -33.5q-104 0 -189 43 t-134 121.5t-49 180.5v184q0 107 49 188.5t133.5 125.5t189.5 44q104 0 188 -44t133 -125.5t49 -188.5v-163zM729 946q0 86 -37 149.5t-100.5 97.5t-142.5 34q-80 0 -144.5 -34t-101.5 -97.5t-37 -149.5v-166q0 -79 37 -139.5t101.5 -93t144.5 -32.5q78 0 142 33t101 93.5 t37 140.5v164z" glyph-name="nine" horiz-adv-x="930" unicode="9"/>
<glyph d="M140.5 9q-20.5 20 -20.5 49q0 30 20.5 50.5t49.5 20.5q30 0 50 -20.5t20 -50.5q0 -29 -19.5 -49t-50.5 -20q-29 0 -49.5 20zM140.5 865q-20.5 20 -20.5 49q0 30 20.5 50.5t49.5 20.5q30 0 50 -20.5t20 -50.5q0 -29 -19.5 -49t-50.5 -20q-29 0 -49.5 20z" glyph-name="colon" horiz-adv-x="368" unicode=":"/>
<glyph d="M130 -263q-10 11 -10 28q0 5 2 13l103 328q4 16 18.5 25t29.5 9q16 -1 30 -15t14 -32q0 -10 -4 -18l-119 -320q-12 -29 -37 -29q-17 0 -27 11zM216.5 867q-20.5 20 -20.5 49q0 30 20.5 50.5t49.5 20.5q30 0 50 -20.5t20 -50.5q0 -29 -19.5 -49t-50.5 -20q-29 0 -49.5 20z " glyph-name="semicolon" horiz-adv-x="443" unicode=";"/>
<glyph d="M669 186q0 -10 -7 -24q-12 -20 -29 -20q-8 0 -22 7l-512 290q-13 7 -20 16.5t-7 19.5q0 26 22 39l518 279q11 7 22 7q19 0 31 -20q7 -13 7 -24q0 -17 -21 -29l-479 -250l476 -262q21 -9 21 -29z" glyph-name="less" horiz-adv-x="774" unicode="&lt;"/>
<glyph d="M726 731q23 0 35 -11.5t12 -33.5q0 -42 -47 -42h-595q-47 0 -47 42q0 45 47 45h595zM726 336q23 0 35 -11t12 -31q0 -22 -12 -33t-35 -11h-595q-47 0 -47 45q0 20 12 30.5t35 10.5h595z" glyph-name="equal" horiz-adv-x="854" unicode="="/>
<glyph d="M702 475q0 -10 -7 -19.5t-20 -16.5l-512 -290q-14 -7 -22 -7q-17 0 -29 20q-7 14 -7 24q0 20 21 29l476 262l-479 250q-21 12 -21 29q0 11 7 24q12 20 31 20q11 0 22 -7l518 -279q22 -13 22 -39z" glyph-name="greater" horiz-adv-x="774" unicode="&gt;"/>
<glyph d="M323 341q-11 10 -11 28q11 82 47.5 136.5t112.5 117.5q33 29 46 39q74 63 117 105.5t71 91.5t28 102v21q0 81 -39.5 138t-107 86t-149.5 29q-99 0 -169 -37.5t-136 -114.5q-12 -11 -19 -15.5t-16 -4.5q-19 0 -30.5 12t-11.5 31t14 33q68 83 157.5 134.5t212.5 51.5 q107 0 195 -40.5t139 -117t51 -179.5v-23q0 -67 -30 -124t-76 -103.5t-128 -117.5q-15 -14 -31.5 -28t-33.5 -29q-55 -49 -86 -94t-46 -110q-5 -12 -15 -20t-25 -8q-20 0 -31 10zM294.5 108.5q20.5 20.5 49.5 20.5q30 0 50 -20.5t20 -50.5q0 -29 -20 -49t-50 -20 q-29 0 -49.5 20t-20.5 49q0 30 20.5 50.5z" glyph-name="question" horiz-adv-x="883" unicode="?"/>
<glyph d="M776.5 1268q101.5 -58 159.5 -158t58 -220v-729q0 -40 -35 -40q-32 0 -32 28l-1 103q-10 -30 -35 -62t-67.5 -55.5t-100.5 -23.5q-67 0 -124.5 34t-91.5 91.5t-34 125.5v242q0 68 35 125.5t95 91t132 33.5q52 0 98 -18t81 -51v70q0 115 -45.5 201t-127 132.5t-187.5 46.5 q-96 0 -177.5 -46t-129.5 -129t-48 -188v-691q0 -98 47.5 -177.5t127.5 -125t175 -45.5q22 0 35 -11t13 -33q0 -47 -52 -47q-119 0 -219 58t-158.5 158t-58.5 219v713q0 120 58.5 220t160 158t223.5 58q124 0 225.5 -58zM914 605q0 46 -24 85.5t-65 63t-90 23.5 q-50 0 -92 -23.5t-66.5 -63t-24.5 -85.5v-245q0 -46 24.5 -85.5t66.5 -62.5t92 -23q49 0 90 23t65 62.5t24 85.5v245z" glyph-name="at" horiz-adv-x="1102" unicode="@"/>
<glyph d="M991 39q0 -18 -12.5 -30t-34.5 -12q-32 0 -40 26l-123 369h-536l-124 -369q-4 -13 -15 -19.5t-25 -6.5q-20 0 -33 12t-13 30q0 11 4 20l431 1229q9 25 44 25q33 0 42 -25l431 -1229q4 -14 4 -20zM751 480l-238 711l-238 -711h476z" glyph-name="A" horiz-adv-x="1026" unicode="A"/>
<glyph d="M916.5 601q59.5 -88 59.5 -212q0 -134 -40 -219.5t-126.5 -127.5t-225.5 -42h-335q-22 0 -34 11.5t-12 33.5v1221q0 22 12 33.5t34 11.5h299q180 0 265 -74.5t85 -234.5q0 -97 -42.5 -172t-132.5 -108q134 -33 193.5 -121zM294 748h266q124 0 185.5 65t61.5 179 q0 122 -62 177t-195 55h-256v-476zM756.5 118q66.5 32 97.5 99.5t31 176.5q0 75 -30.5 137.5t-95.5 100.5t-165 38h-300v-584h287q109 0 175.5 32z" glyph-name="B" horiz-adv-x="1078" unicode="B"/>
<glyph d="M707 16q-76 -31 -187 -31q-113 0 -206.5 56.5t-147.5 153t-54 212.5v495q0 117 53.5 214t147 153t207.5 56q107 0 183.5 -29.5t155.5 -91.5q19 -15 19 -35q0 -18 -13.5 -32t-31.5 -14q-12 0 -36 16q-68 50 -128 73t-150 23q-87 0 -159.5 -43.5t-115 -120t-42.5 -172.5 v-489q0 -95 43 -171.5t116 -120t159 -43.5q89 0 150 23t127 73q23 16 36 16q18 0 31.5 -14t13.5 -32q0 -20 -19 -35q-76 -59 -152 -90z" glyph-name="C" horiz-adv-x="964" unicode="C"/>
<glyph d="M777 1253.5q96 -57.5 151.5 -153.5t55.5 -207v-475q0 -111 -55 -207t-151 -153.5t-212 -57.5h-2h-4h-311h-1q-21 0 -33 11.5t-12 33.5v1221q0 22 12 33.5t33 11.5h1h314h1q117 0 213 -57.5zM893 892q0 89 -45 164.5t-120.5 119.5t-163.5 44h-1h-269v-1130h268h2 q91 0 166.5 45t119 120.5t43.5 163.5v473z" glyph-name="D" horiz-adv-x="1095" unicode="D"/>
<glyph d="M245 0q-21 0 -31.5 12.5t-10.5 35.5v1218q0 23 12.5 34t34.5 11h598q21 0 33 -11.5t12 -33.5t-12 -34t-33 -12h-553v-502h439q22 0 33.5 -11t11.5 -32t-11.5 -32t-33.5 -11h-439v-542h553q21 0 33 -11.5t12 -32.5q0 -22 -12 -34t-33 -12h-603z" glyph-name="E" horiz-adv-x="984" unicode="E"/>
<glyph d="M848 1311q44 0 44 -45q0 -46 -44 -46h-553v-540h396q45 0 45 -43q0 -42 -45 -42h-396v-553q0 -44 -46 -44q-22 0 -34 11t-12 33v1225q1 21 14 32.5t36 11.5h595z" glyph-name="F" horiz-adv-x="938" unicode="F"/>
<glyph d="M915 613v-457q0 -21 -5.5 -37.5t-21.5 -27.5q-8 -4 -65.5 -35t-135.5 -51t-156 -20q-120 0 -216 56.5t-149.5 153.5t-53.5 214v490q0 116 52.5 213.5t147 155t214.5 57.5q81 0 144 -19t98.5 -40.5t86.5 -58.5q22 -15 22 -38q0 -18 -13.5 -32t-29.5 -14q-13 0 -37 15 q-6 4 -44.5 31.5t-98.5 46.5t-128 19q-93 0 -167 -44.5t-115.5 -121.5t-41.5 -170v-488q0 -96 42 -172.5t117.5 -120t171.5 -43.5q94 0 162 25.5t134 62.5v407h-268q-21 0 -33 12t-12 33q0 20 12 31.5t33 11.5h305q49 0 49 -45z" glyph-name="G" horiz-adv-x="1025" unicode="G"/>
<glyph d="M994.5 1301.5q11.5 -11.5 11.5 -32.5v-1227q0 -21 -11.5 -32.5t-33.5 -11.5q-21 0 -33 11.5t-12 32.5v566h-622v-566q0 -21 -12 -32.5t-34 -11.5q-21 0 -33 11.5t-12 32.5v1227q0 21 12 32.5t33 11.5q22 0 34 -11.5t12 -32.5v-570h622v570q0 21 12 32.5t34 11.5 q21 0 32.5 -11.5z" glyph-name="H" horiz-adv-x="1210" unicode="H"/>
<glyph d="M295 42q0 -21 -12.5 -32.5t-34.5 -11.5q-21 0 -33 11.5t-12 32.5v1227q0 21 12 32.5t33 11.5q22 0 34.5 -11.5t12.5 -32.5v-1227z" glyph-name="I" horiz-adv-x="498" unicode="I"/>
<glyph d="M927 1266v-859q0 -120 -52 -216.5t-145.5 -151t-211.5 -54.5q-114 0 -204 55t-140.5 151t-50.5 216v56q0 21 11.5 32.5t33.5 11.5q21 0 32 -11.5t11 -32.5v-50q0 -100 39.5 -177t109.5 -119t160 -42t162 42.5t113 119t41 176.5v809h-481q-22 0 -34.5 11.5t-12.5 32.5 t12.5 33t34.5 12h527q37 0 43 -30q2 -8 2 -15z" glyph-name="J" horiz-adv-x="1082" unicode="J"/>
<glyph d="M998 37q0 -17 -12 -28t-31 -11q-16 0 -26.5 6.5t-18.5 20.5l-419 688l-196 -234v-439q0 -22 -12 -33.5t-34 -11.5t-34 11.5t-12 33.5v1229q0 21 12 32.5t34 11.5q21 0 33.5 -11.5t12.5 -32.5v-652l572 685q13 14 30 14q23 0 35 -12.5t12 -30.5q0 -21 -14 -36l-377 -450 l438 -725q7 -13 7 -25z" glyph-name="K" horiz-adv-x="1073" unicode="K"/>
<glyph d="M902 44q0 -46 -46 -44h-608q-22 0 -33.5 13t-11.5 38v1217q0 22 11.5 33.5t33.5 11.5q47 0 47 -45v-1178h561q46 0 46 -46z" glyph-name="L" horiz-adv-x="956" unicode="L"/>
<glyph d="M1262 1312q13 -11 13 -29v-1242q0 -22 -11.5 -33.5t-33.5 -11.5t-33.5 11.5t-11.5 33.5v1118l-411 -578q-16 -22 -35 -22t-34 21l-411 578v-1117q0 -22 -12 -33.5t-33 -11.5q-22 0 -34 11.5t-12 33.5v1242q0 20 13 30t33 10q21 0 35 -17l456 -631l455 630q8 12 17 15 t18 3q19 0 32 -11z" glyph-name="M" horiz-adv-x="1479" unicode="M"/>
<glyph d="M1064 1277v-1242q0 -19 -11.5 -29t-28.5 -10q-28 0 -39 19l-690 1115v-1086q0 -24 -12.5 -36t-34.5 -12t-33.5 13t-11.5 35v1236q0 18 13 30.5t31 12.5q28 0 40 -20l686 -1107v1081q0 22 12 34t35 12q44 0 44 -46z" glyph-name="N" horiz-adv-x="1268" unicode="N"/>
<glyph d="M112 903q0 119 55 215.5t150.5 152t211.5 55.5q119 0 215 -55t151 -151.5t55 -216.5v-496q0 -120 -55 -216t-151.5 -151t-214.5 -55q-115 0 -210.5 55t-151 151.5t-55.5 215.5v496zM202 411q0 -98 44 -174.5t119 -119t164 -42.5q92 0 167.5 42.5t119 119t43.5 174.5v489 q0 98 -43.5 174.5t-119 119t-167.5 42.5q-89 0 -164 -42.5t-119 -119t-44 -174.5v-489z" glyph-name="O" horiz-adv-x="1061" unicode="O"/>
<glyph d="M521 1311q214 0 320 -102t106 -321v-19q0 -218 -107 -321.5t-321 -103.5h-224v-389q0 -23 -13 -40t-34 -17q-45 0 -45 44v1224q0 22 12 33.5t33 11.5h273zM295 1220v-688h219q121 0 196 34t110.5 108t35.5 196v18q0 119 -35.5 192t-109.5 106.5t-194 33.5h-222z" glyph-name="P" horiz-adv-x="1027" unicode="P"/>
<glyph d="M934 -140q14 0 21.5 -11.5t7.5 -27.5t-9 -26t-20 -14q-96 -37 -192 -39q-111 0 -182 62.5t-83 183.5q-103 12 -186.5 69t-131 148.5t-47.5 201.5v496q0 119 55 215.5t150.5 152t211.5 55.5q119 0 215 -55t151 -151.5t55 -216.5v-496q0 -113 -50 -206t-137.5 -149.5 t-196.5 -65.5q8 -84 55 -124.5t124 -40.5q42 0 84 9t94 28q8 2 11 2zM246 236.5q44 -76.5 119 -119t164 -42.5q92 0 167.5 42.5t119 119t43.5 174.5v489q0 98 -43.5 174.5t-119 119t-167.5 42.5q-89 0 -164 -42.5t-119 -119t-44 -174.5v-489q0 -98 44 -174.5z" glyph-name="Q" horiz-adv-x="1061" unicode="Q"/>
<glyph d="M885 680q-62 -92 -165 -136q57 -28 97 -77.5t56 -120.5l66 -291q1 -5 1 -15q0 -45 -44 -45q-17 0 -28.5 9t-14.5 27l-71 306q-19 84 -82 128t-144 46h-261v-469q0 -21 -12.5 -32.5t-34.5 -11.5q-45 0 -45 44v1224q0 22 12 33.5t33 11.5h258q222 0 331.5 -95t109.5 -308 v-10q0 -126 -62 -218zM715 634q66 37 103.5 104t37.5 155v12q0 167 -82.5 241t-259.5 74h-219v-623h269q85 0 151 37z" glyph-name="R" horiz-adv-x="1074" unicode="R"/>
<glyph d="M153.5 1176.5q49.5 73.5 129 111.5t167.5 38q99 0 178.5 -28.5t163.5 -94.5q16 -12 16 -31q0 -18 -13 -32.5t-31 -14.5q-8 0 -15.5 3.5t-19.5 11.5q-71 54 -134.5 75.5t-144.5 21.5q-62 0 -121 -26t-97 -78.5t-38 -128.5q0 -60 36 -105t84 -74t121 -63l43 -20l37 -18 q113 -57 177.5 -100.5t108.5 -114.5t44 -176q0 -96 -51.5 -176t-142 -126t-202.5 -46q-104 0 -194 35t-157 83q-22 14 -22 36q0 18 13.5 33.5t28.5 15.5q8 0 14 -2t19 -10q149 -101 302 -101q86 0 155 34.5t108 93.5t39 130q0 82 -38 138.5t-95.5 92.5t-159.5 86l-25 12 q-105 50 -168.5 87.5t-114 101t-50.5 150.5q0 102 49.5 175.5z" glyph-name="S" horiz-adv-x="934" unicode="S"/>
<glyph d="M841.5 1299.5q11.5 -11.5 11.5 -33.5t-11.5 -34t-33.5 -12h-324v-1176q0 -46 -45 -46t-45 45v1177h-324q-45 0 -45 46q0 45 45 45h738q22 0 33.5 -11.5z" glyph-name="T" horiz-adv-x="878" unicode="T"/>
<glyph d="M361 40q-94 55 -149.5 151.5t-55.5 215.5v861q0 22 11.5 33.5t33.5 11.5t33.5 -11.5t11.5 -33.5v-857q0 -98 43 -174.5t116.5 -119t163.5 -42.5q91 0 164.5 42t115 118.5t41.5 175.5v857q0 21 12.5 33t33.5 12q22 0 33.5 -11.5t11.5 -33.5v-861q0 -120 -53.5 -216.5 t-148 -151t-212.5 -54.5q-112 0 -206 55z" glyph-name="U" horiz-adv-x="1137" unicode="U"/>
<glyph d="M949 1300q14 -13 14 -32q0 -7 -3 -16l-419 -1236q-6 -17 -16.5 -24t-26.5 -7q-31 0 -43 31l-419 1237q-3 9 -3 17q0 19 13.5 31t32.5 12q13 0 24 -7.5t16 -19.5l379 -1150l379 1150q4 12 14.5 19.5t25.5 7.5q18 0 32 -13z" glyph-name="V" horiz-adv-x="996" unicode="V"/>
<glyph d="M1426 1301q13 -12 13 -32q0 -4 -2 -14l-306 -1226q-7 -24 -18.5 -34t-31.5 -10q-42 0 -54 44l-291 1130l-292 -1131q-9 -43 -53 -43q-20 0 -32 10t-18 35l-306 1225q-2 10 -2 14q0 20 13 32t32 12q15 0 27.5 -9.5t15.5 -29.5l273 -1128l289 1121q12 46 53 46t52 -46 l290 -1119l273 1126q3 20 15.5 29.5t27.5 9.5q19 0 32 -12z" glyph-name="W" horiz-adv-x="1472" unicode="W"/>
<glyph d="M914 41q0 -17 -12.5 -29t-29.5 -13q-22 -3 -35 14l-350 559l-352 -559q-5 -8 -14.5 -12t-20.5 -2q-18 1 -30.5 13.5t-12.5 29.5q0 16 10 30l367 584l-364 580q-11 16 -11 30q0 17 12 29t30 14q10 2 20 -2t16 -12l348 -556l350 556q6 8 16 12t20 2q18 -1 29 -13.5 t11 -30.5q0 -17 -9 -30l-364 -581l365 -583q11 -16 11 -30z" glyph-name="X" horiz-adv-x="971" unicode="X"/>
<glyph d="M915.5 1300q12.5 -13 12.5 -32q0 -16 -8 -29l-398 -690v-507q0 -21 -12 -32.5t-34 -11.5q-21 0 -33 11.5t-12 32.5v507l-398 690q-8 13 -8 29q0 19 12.5 32t30.5 13q24 0 38 -23l370 -659l372 659q12 23 38 23q17 0 29.5 -13z" glyph-name="Y" horiz-adv-x="953" unicode="Y"/>
<glyph d="M866.5 78.5q11.5 -11.5 11.5 -33.5t-11.5 -33.5t-33.5 -11.5h-742q-19 0 -30.5 12.5t-11.5 32.5q0 13 10 30l655 1145h-590q-21 0 -32.5 12t-11.5 34q0 21 12 33t34 12h672q17 0 28 -13t11 -31q0 -9 -3.5 -18t-7.5 -17l-659 -1142h666q22 0 33.5 -11.5z" glyph-name="Z" horiz-adv-x="915" unicode="Z"/>
<glyph d="M469 -205.5q12 -11.5 12 -32.5q0 -22 -12 -34t-33 -12h-258q-21 0 -33 12t-12 34v1556q0 22 12 34t33 12h257q22 0 34 -12.5t12 -34.5t-12 -33t-34 -11h-211v-1467h212q21 0 33 -11.5z" glyph-name="bracketleft" horiz-adv-x="507" unicode="["/>
<glyph d="M57 1272q0 19 14 30t35 11q15 0 26.5 -9t17.5 -27l394 -1222q3 -7 3 -15q0 -17 -14 -28.5t-33 -11.5q-15 0 -28 8.5t-17 23.5l-395 1222q-3 9 -3 18z" glyph-name="backslash" horiz-adv-x="603" unicode="\"/>
<glyph d="M283 -194v1467h-211q-22 0 -34 11t-12 33t12 34.5t34 12.5h257q21 0 33 -12t12 -34v-1556q0 -22 -12 -34t-33 -12h-258q-21 0 -33 12t-12 34q0 21 12 32.5t33 11.5h212z" glyph-name="bracketright" horiz-adv-x="507" unicode="]"/>
<glyph d="M772 810q0 -16 -10.5 -26.5t-26.5 -12.5q-10 -2 -19.5 2t-15.5 13l-301 423l-297 -424q-7 -9 -16.5 -13t-18.5 -2q-16 1 -26.5 13t-10.5 27q0 12 7 22l329 469q12 18 34 18q24 0 34 -17l330 -468q8 -13 8 -24z" glyph-name="asciicircum" horiz-adv-x="812" unicode="^"/>
<glyph d="M859 -129q23 0 37 -11.5t14 -30.5q0 -21 -13.5 -32.5t-37.5 -11.5h-810q-49 0 -49 44q0 42 49 42h810z" glyph-name="underscore" horiz-adv-x="910" unicode="_"/>
<glyph d="M76 1312q0 17 12.5 30t28.5 13q11 0 18.5 -3.5t14.5 -16.5l129 -179q4 -8 4 -19q0 -14 -8.5 -24t-23.5 -10t-27 13l-137 168q-11 12 -11 28z" glyph-name="grave" horiz-adv-x="510" unicode="`"/>
<glyph d="M677 887.5q82 -84.5 82 -232.5v-553q0 -27 -7.5 -39t-36.5 -23q-56 -24 -134.5 -39.5t-165.5 -15.5q-97 0 -168.5 35t-110 100.5t-38.5 155.5v3q0 142 84.5 214t234.5 72q139 0 256 -42v128q0 114 -61.5 175.5t-168.5 61.5q-104 0 -202 -44q-4 -1 -12 -3.5t-17 -2.5 q-13 0 -23.5 12.5t-10.5 27.5q0 28 27 41q118 53 243 53q147 0 229 -84.5zM673 109v344q-50 18 -114 29t-131 11q-117 0 -181 -52t-64 -157v-1q0 -105 63.5 -164.5t177.5 -59.5q127 0 249 50z" glyph-name="a" horiz-adv-x="919" unicode="a"/>
<glyph d="M705 929q76 -43 119 -116.5t43 -160.5v-343q0 -91 -45 -165t-123 -116.5t-172 -42.5q-84 0 -150 14t-143 39q-25 8 -35 20t-10 35v1213q0 45 42 45q44 0 44 -45v-347l-8 -36q57 20 118 34.5t149 14.5q95 0 171 -43zM782 650q0 67 -34 121.5t-92.5 85.5t-129.5 31 q-124 0 -185.5 -24.5t-65.5 -25.5v-721q17 -5 20 -7q54 -18 107.5 -30t123.5 -12q71 0 129.5 31.5t92.5 86t34 121.5v343z" glyph-name="b" horiz-adv-x="993" unicode="b"/>
<glyph d="M170.5 813q44.5 74 122.5 116.5t174 42.5q87 0 148.5 -24.5t110.5 -59.5q17 -13 17 -31q0 -15 -10 -27t-22 -13l-9 -1q-8 0 -14.5 2.5t-9.5 3.5q-45 29 -94.5 47.5t-120.5 18.5q-69 0 -127 -31.5t-91.5 -86t-33.5 -121.5v-342q0 -64 32.5 -119t90 -87.5t129.5 -32.5 t119.5 17.5t95.5 48.5q16 6 24 6l9 -1q12 0 22 -12t10 -28q0 -18 -17 -31q-37 -25 -68.5 -41.5t-80.5 -29t-113 -12.5q-97 0 -174 43.5t-120.5 116.5t-43.5 160v346q0 88 44.5 162z" glyph-name="c" horiz-adv-x="829" unicode="c"/>
<glyph d="M608 957.5q61 -14.5 118 -34.5l-8 36v347q0 45 44 45q42 0 42 -45v-1213q0 -23 -10 -35t-35 -20q-77 -25 -143 -39t-150 -14q-94 0 -172 42.5t-123 116.5t-45 165v343q0 87 43 160.5t119 116.5t171 43q88 0 149 -14.5zM245 185.5q34 -54.5 92.5 -86t129.5 -31.5 q70 0 123.5 12t107.5 30q3 2 20 7v721q-4 1 -65.5 25.5t-185.5 24.5q-71 0 -129.5 -31t-92.5 -85.5t-34 -121.5v-343q0 -67 34 -121.5z" glyph-name="d" horiz-adv-x="993" unicode="d"/>
<glyph d="M637 927.5q78 -44.5 122.5 -119t44.5 -161.5v-150q0 -17 -10.5 -28t-28.5 -11h-556v-148q0 -66 33.5 -122t92 -89.5t129.5 -33.5q47 0 87 10.5t63 22t60 32.5q5 2 12.5 6t15.5 4q18 0 29 -12t11 -28q0 -22 -19 -35q-128 -80 -259 -80q-95 0 -172.5 43t-121.5 116t-44 159 v348q0 88 44 161.5t121 116.5t173 43q95 0 173 -44.5zM209 530h512v123q0 66 -34.5 121.5t-93.5 88t-129 32.5q-71 0 -129 -31.5t-92 -87t-34 -123.5v-123z" glyph-name="e" horiz-adv-x="890" unicode="e"/>
<glyph d="M616.5 1311q8.5 -8 8.5 -26t-10 -29t-25 -11q-3 0 -11 2q-44 17 -80 25.5t-83 8.5q-72 0 -119 -38.5t-47 -109.5q0 -42 19 -93l30 -84h213q20 0 30.5 -10.5t10.5 -30.5t-10.5 -30.5t-30.5 -10.5h-210v-947q0 -102 -41 -177t-145 -75q-34 0 -55.5 1.5t-59.5 9.5 q-18 4 -28 13t-10 26q0 21 12.5 31.5t30.5 8.5q51 -9 101 -9q68 0 88.5 52t20.5 127v939h-74q-40 1 -40 41q0 41 40 41h74l-30 84q-23 60 -23 114q0 64 30.5 110.5t84 71.5t120.5 25q56 0 100 -9t92 -27q18 -6 26.5 -14z" glyph-name="f" horiz-adv-x="570" unicode="f"/>
<glyph d="M311 -294q-11 10 -11 26q0 21 12.5 32.5t33.5 8.5q78 -21 176 -21q102 0 151.5 75t49.5 228l6 68q-4 -2 -39 -24t-100.5 -40.5t-135.5 -18.5q-89 0 -164 45t-119.5 125t-44.5 180v251q0 97 43.5 172.5t119.5 117t170 41.5t162.5 -14t142.5 -42q23 -9 31.5 -20.5 t8.5 -36.5v-815q0 -180 -71 -276.5t-201 -96.5q-95 0 -192 22q-18 3 -29 13zM602 144q55 20 82.5 36.5t33.5 19.5v638q-9 3 -51.5 18t-93 23t-107.5 8q-72 0 -130 -31t-91.5 -88t-33.5 -134v-242q0 -79 33 -140t91 -94.5t131 -33.5q81 0 136 20z" glyph-name="g" horiz-adv-x="983" unicode="g"/>
<glyph d="M704 929.5q76 -42.5 119.5 -116t43.5 -162.5v-609q0 -21 -11.5 -32.5t-31.5 -11.5q-42 0 -42 44v608q0 66 -34 120.5t-92.5 86t-129.5 31.5q-73 0 -125 -11.5t-106 -30.5q-3 -1 -20 -7v-797q0 -21 -11 -32.5t-31 -11.5q-21 0 -32.5 11t-11.5 33v1264q0 45 42 45 q44 0 44 -45v-347l-8 -37q60 24 129 37t138 13q94 0 170 -42.5z" glyph-name="h" horiz-adv-x="1028" unicode="h"/>
<glyph d="M319 913v-1v-871q0 -21 -11 -32t-31 -11q-21 0 -32.5 11t-11.5 32v833h-127q-20 0 -30.5 10.5t-10.5 30.5q0 41 41 41h168h1h1q28 0 38 -19q5 -10 5 -23v-1zM192 1172q-18 18 -18 43q0 26 18 44.5t44 18.5t44 -18.5t18 -44.5t-18 -43.5t-44 -17.5t-44 18z" glyph-name="i" horiz-adv-x="497" unicode="i"/>
<glyph d="M319 913v-1v-974q0 -267 -215 -267q-32 0 -104 15q-21 4 -31 12t-10 26q0 21 11 33.5t32 9.5q71 -15 96 -15q73 0 104 47t31 144v931h-127q-20 0 -30.5 10.5t-10.5 30.5q0 41 41 41h168h1h1q28 0 38 -19q5 -10 5 -23v-1zM216 1176q-18 18 -18 43q0 26 18 44.5t44 18.5 t44 -18.5t18 -44.5t-18 -43.5t-44 -17.5t-44 18z" glyph-name="j" horiz-adv-x="497" unicode="j"/>
<glyph d="M843 38q0 -15 -12.5 -26.5t-30.5 -11.5q-10 0 -17.5 4.5t-16.5 15.5l-284 395q-39 -15 -100 -36l-108 -35v-303q0 -19 -12 -31t-30 -12q-19 0 -31 12t-12 31v1265q0 19 12 32t30 13q19 0 31 -12.5t12 -32.5v-582q55 107 142.5 177.5t190.5 70.5t162 -56t59 -153 q0 -96 -66 -173.5t-206 -142.5l273 -371q14 -16 14 -38zM654.5 594.5q87.5 65.5 87.5 149.5q0 67 -37.5 103t-113.5 36q-79 0 -152.5 -62.5t-119 -154.5t-45.5 -174v-63l107 39q186 61 273.5 126.5z" glyph-name="k" horiz-adv-x="928" unicode="k"/>
<glyph d="M294 1304v-1263q0 -21 -11 -32t-31 -11q-21 0 -32.5 11t-11.5 32v1222h-100q-21 0 -32 11.5t-11 31.5q0 42 43 42h143q13 0 20 -3q23 -9 23 -41z" glyph-name="l" horiz-adv-x="473" unicode="l"/>
<glyph d="M1204.5 932.5q70.5 -39.5 111 -110t40.5 -159.5v-621q0 -21 -11.5 -32.5t-31.5 -11.5t-31 12t-11 32v614q0 67 -31 119.5t-84 82t-117 29.5q-67 0 -136.5 -31.5t-113.5 -68.5q22 -57 22 -122v-623q0 -20 -11.5 -32t-32.5 -12q-20 0 -31 11.5t-11 32.5v622 q0 67 -30.5 117.5t-83.5 78t-118 27.5q-102 0 -229 -47v-798q0 -21 -10.5 -32.5t-30.5 -11.5q-21 0 -32.5 11t-11.5 33v827q0 32 30 43q69 25 140.5 42.5t150.5 17.5q74 0 137.5 -28.5t105.5 -79.5q62 43 144 75.5t159 32.5q88 0 158.5 -39.5z" glyph-name="m" horiz-adv-x="1517" unicode="m"/>
<glyph d="M706.5 933.5q71.5 -38.5 111 -112.5t39.5 -178v-601q0 -21 -11.5 -32.5t-31.5 -11.5q-42 0 -42 44v597q0 122 -64.5 185t-175.5 63q-141 0 -268 -49v-796q0 -22 -10.5 -33t-30.5 -11q-21 0 -32.5 11t-11.5 33v826q0 14 6 25t17 16q144 63 337 63q96 0 167.5 -38.5z" glyph-name="n" horiz-adv-x="1018" unicode="n"/>
<glyph d="M126 652q0 89 45 162t122.5 115.5t170.5 42.5q94 0 171.5 -42.5t123 -115.5t45.5 -162v-348q0 -89 -45 -162t-123 -115t-172 -42q-93 0 -170.5 42t-122.5 115t-45 162v348zM211 307q0 -67 33.5 -121.5t91.5 -86t128 -31.5q71 0 129 31.5t92 86t34 121.5v342 q0 67 -34 121.5t-92 86t-129 31.5q-70 0 -128 -31.5t-91.5 -86t-33.5 -121.5v-342z" glyph-name="o" horiz-adv-x="930" unicode="o"/>
<glyph d="M403 -6.5q-52 8.5 -78.5 17t-67.5 22.5l8 -35v-283q0 -45 -44 -45q-42 0 -42 45v1148q0 24 10 35.5t35 19.5q73 25 144 39.5t156 14.5q93 0 169.5 -42t120 -115t43.5 -162v-349q0 -87 -44.5 -160t-122.5 -116t-173 -43q-62 0 -114 8.5zM738 770.5q-34 54.5 -92.5 86 t-129.5 31.5q-56 0 -104 -8.5t-70.5 -15.5t-76.5 -25v-721q4 -1 65.5 -25.5t185.5 -24.5q71 0 129.5 31t92.5 86t34 122v342q0 67 -34 121.5z" glyph-name="p" horiz-adv-x="983" unicode="p"/>
<glyph d="M293 28q-78 43 -122.5 116t-44.5 160v349q0 89 43.5 162t120 115t169.5 42q85 0 155 -14.5t145 -39.5q25 -8 35 -19.5t10 -35.5v-1148q0 -45 -42 -45q-44 0 -44 45v283l7 35q-4 -2 -40.5 -15t-96.5 -23t-122 -10q-95 0 -173 43zM211 307q0 -67 34 -122t92 -86t129 -31 q124 0 186 24.5t66 25.5v721q-7 2 -46 16t-94 23.5t-112 9.5q-71 0 -129 -31.5t-92 -86t-34 -121.5v-342z" glyph-name="q" horiz-adv-x="983" unicode="q"/>
<glyph d="M572 883q-41 5 -76 5q-63 0 -130 -25t-101 -60v-761q0 -21 -11 -32.5t-31 -11.5q-21 0 -32.5 11.5t-11.5 32.5v792q0 12 7 24t19 20q51 38 134 66t157 28q45 0 91.5 -6.5t77.5 -18.5q13 -4 20 -14.5t7 -24.5q0 -22 -12 -33t-33 -9q-34 12 -75 17z" glyph-name="r" horiz-adv-x="720" unicode="r"/>
<glyph d="M221 529q-45 27 -76 75.5t-31 125.5q0 76 36.5 131t97 83t130.5 28q69 0 120.5 -16t106.5 -45q13 -6 19.5 -17t6.5 -23q-1 -15 -11.5 -26.5t-26.5 -11.5q-9 0 -19.5 3.5t-15.5 5.5q-4 2 -32 15.5t-66.5 22t-80.5 8.5q-45 0 -86 -17.5t-67 -54t-26 -90.5q0 -51 20.5 -83 t57 -53t106.5 -51q100 -42 151.5 -72.5t81.5 -80t30 -129.5q0 -82 -36 -143.5t-100 -95t-144 -33.5q-76 0 -143 21.5t-114 47.5q-32 13 -32 40q0 17 11.5 28.5t28.5 11.5q10 0 39 -11q49 -23 100.5 -39t112.5 -16q84 0 137 50.5t53 135.5q0 57 -23 93.5t-65.5 61 t-128.5 61.5q-77 32 -122 59z" glyph-name="s" horiz-adv-x="727" unicode="s"/>
<glyph d="M258 1242v-286h230q20 0 31 -10t11 -30t-11 -31t-31 -11h-230v-613q0 -97 39 -145t120 -48q43 0 117 13l24 4q3 1 10 1q17 0 27.5 -11.5t10.5 -30.5q0 -18 -11.5 -27.5t-34.5 -13.5q-90 -18 -148 -18q-239 0 -239 268v621h-75q-18 1 -28 12t-10 30t10 29.5t28 10.5h75 v286q0 21 11.5 32t31.5 11q42 0 42 -43z" glyph-name="t" horiz-adv-x="654" unicode="t"/>
<glyph d="M324 25.5q-76 40.5 -119.5 112.5t-43.5 162v614q0 21 11.5 33t31.5 12t31 -11.5t11 -33.5v-612q0 -67 34 -120.5t92.5 -83.5t129.5 -30q78 0 135 13.5t117 37.5v795q0 22 10.5 33.5t30.5 11.5q21 0 32.5 -11.5t11.5 -33.5v-826q0 -14 -6 -25t-17 -15q-70 -30 -147 -46.5 t-175 -16.5q-94 0 -170 40.5z" glyph-name="u" horiz-adv-x="1018" unicode="u"/>
<glyph d="M767.5 946q11.5 -11 11.5 -28q0 -11 -4 -20l-320 -882q-5 -14 -16 -21.5t-26 -7.5q-14 0 -25 7.5t-16 21.5l-321 883q-4 9 -4 19q0 18 13 29.5t31 11.5q29 0 38 -27l285 -816l284 816q10 29 40 27q18 -2 29.5 -13z" glyph-name="v" horiz-adv-x="827" unicode="v"/>
<glyph d="M1209 947.5q13 -11.5 13 -29.5q0 -8 -3 -17l-257 -874q-13 -40 -51 -40q-39 0 -49 37l-227 812l-228 -812q-10 -37 -49 -37q-17 0 -30.5 10t-19.5 30l-258 874q-3 9 -3 17q0 18 13.5 29.5t32.5 11.5q27 0 37 -33l234 -815l223 813q5 20 18 29t30 9q38 0 47 -39l223 -815 l235 818q9 33 36 33q20 0 33 -11.5z" glyph-name="w" horiz-adv-x="1269" unicode="w"/>
<glyph d="M754 39q0 -16 -12 -28.5t-29 -12.5q-25 0 -37 20l-271 402l-272 -402q-14 -20 -34 -20q-18 -1 -31 11.5t-13 29.5q0 13 7 23l291 435l-266 395q-8 11 -8 25q0 17 13 29t31 13q20 0 35 -21l252 -375l252 374q15 22 35 22q18 0 31 -12t13 -30q0 -11 -8 -25l-273 -404 l287 -426q7 -10 7 -23z" glyph-name="x" horiz-adv-x="812" unicode="x"/>
<glyph d="M827.5 947.5q11.5 -11.5 11.5 -33.5v-871q0 -180 -70.5 -274.5t-201.5 -94.5q-101 0 -193 22q-42 8 -42 41q0 41 36 41l9 -1q23 -4 37 -7q40 -7 71.5 -11t72.5 -4q101 0 151 72.5t50 223.5v16q-121 -42 -265 -42q-94 0 -170 40.5t-119.5 112.5t-43.5 162v574 q0 21 11.5 33t31.5 12t31 -11.5t11 -33.5v-572q0 -67 34 -120t92.5 -83t129.5 -30q79 0 136.5 13t115.5 37v755q0 22 10.5 33.5t30.5 11.5q21 0 32.5 -11.5z" glyph-name="y" horiz-adv-x="1018" unicode="y"/>
<glyph d="M757 42q0 -42 -46 -42h-590q-20 0 -31 14t-10 31q0 17 12 32l530 794h-489q-22 0 -34 11t-12 31q0 43 46 43h569q19 0 29.5 -12.5t10.5 -30.5t-14 -36l-528 -793h511q46 0 46 -42z" glyph-name="z" horiz-adv-x="809" unicode="z"/>
<glyph d="M571 -204q0 -45 -45 -45q-76 0 -139.5 35t-100.5 97t-37 138v278q0 95 -31.5 144t-108.5 67q-20 4 -30.5 16t-10.5 30q0 43 41 49q78 18 109 66t31 144v280q0 75 37 136.5t100 97t140 35.5q45 0 45 -45t-45 -45q-52 0 -95 -25t-67.5 -67.5t-24.5 -92.5v-260 q0 -96 -27.5 -165.5t-110.5 -106.5q84 -37 111 -106t27 -167v-258q0 -50 24.5 -92.5t67.5 -67.5t95 -25q45 0 45 -45z" glyph-name="braceleft" horiz-adv-x="641" unicode="{"/>
<glyph d="M203 1263q0 23 11.5 35.5t33.5 12.5t34 -12.5t12 -35.5v-1479q0 -47 -46 -47q-45 0 -45 47v1479z" glyph-name="bar" horiz-adv-x="497" unicode="|"/>
<glyph d="M573 556q0 -18 -10.5 -30t-30.5 -16q-77 -18 -108.5 -67t-31.5 -144v-278q0 -76 -37 -138t-100.5 -97t-139.5 -35q-45 0 -45 45t45 45q52 0 95 25t67.5 67.5t24.5 92.5v258q0 98 27 167t111 106q-83 37 -110.5 106.5t-27.5 165.5v260q0 50 -24.5 92.5t-67.5 67.5t-95 25 q-45 0 -45 45t45 45q77 0 140 -35.5t100 -97t37 -136.5v-280q0 -96 31 -144t109 -66q41 -6 41 -49z" glyph-name="braceright" horiz-adv-x="641" unicode="}"/>
<glyph d="M887 588q0 -18 -11 -30q-14 -35 -47 -72.5t-81 -63t-103 -25.5q-47 0 -94.5 22.5t-90.5 57.5q-34 29 -72 48t-75 19q-58 0 -101.5 -37.5t-66.5 -92.5q-13 -15 -34 -15q-16 0 -29 10q-16 14 -16 34q0 16 11 30q15 35 48 72t81 63t103 26q87 0 180 -73q35 -28 76.5 -50.5 t74.5 -22.5q60 0 102.5 35.5t68.5 92.5q18 15 35 15q13 0 25 -9q16 -13 16 -34z" glyph-name="asciitilde" horiz-adv-x="947" unicode="~"/>
<glyph glyph-name="uni00A0" horiz-adv-x="461" unicode=" "/>
<glyph d="M323.5 952q20.5 -20 20.5 -49q0 -30 -20.5 -51t-50.5 -21q-29 0 -49.5 21t-20.5 51q0 29 20.5 49t49.5 20q30 0 50.5 -20zM319 624v-931q0 -22 -11.5 -34t-33.5 -12q-21 0 -33 12.5t-12 33.5v931q0 23 11.5 35.5t33.5 12.5q45 0 45 -48z" glyph-name="exclamdown" horiz-adv-x="547" unicode="¡"/>
<glyph d="M733 127q10 -12 10 -28q0 -18 -17 -31q-49 -34 -96.5 -54.5t-120.5 -26.5v-106q0 -22 -11.5 -33.5t-32.5 -11.5q-42 0 -42 45v106q-87 9 -154.5 54t-105 114t-37.5 150v346q0 82 38.5 151t106.5 113.5t153 54.5v105q0 22 10.5 34t30.5 12q21 0 32.5 -12t11.5 -34v-105 q71 -6 122.5 -28.5t94.5 -53.5q17 -13 17 -31q0 -15 -10 -27t-22 -13l-9 -1q-8 0 -14.5 2.5t-9.5 3.5q-45 29 -94.5 47.5t-120.5 18.5q-69 0 -127 -31.5t-91.5 -86t-33.5 -121.5v-342q0 -64 32.5 -119t90 -87.5t129.5 -32.5t119.5 17.5t95.5 48.5q16 6 24 6l9 -1 q12 0 22 -12z" glyph-name="cent" horiz-adv-x="829" unicode="¢"/>
<glyph d="M920.5 78q11.5 -12 11.5 -34q0 -46 -45 -44h-639q-21 0 -33 13.5t-12 37.5v515h-116q-15 0 -23 8t-8 22q0 29 31 29h116v268q0 119 48.5 218t138.5 157t210 58q83 0 141 -17.5t159 -69.5q25 -11 25 -37q0 -17 -10.5 -30.5t-23.5 -14.5q-12 -2 -38 6q-86 44 -134 58 t-116 14q-93 0 -163 -45.5t-108 -124t-38 -175.5v-265h389q31 0 31 -29q0 -14 -8 -22t-23 -8h-389v-476h593q22 0 33.5 -12z" glyph-name="sterling" horiz-adv-x="986" unicode="£"/>
<glyph d="M100 274q0 13 10 24l108 111q-28 35 -44 78t-16 89q0 47 16 90.5t45 78.5l-108 110q-11 12 -11 26q0 15 13 27q13 11 24 11q15 0 28 -16l109 -112q69 53 153 53q85 0 152 -53l110 112q14 15 26 15q11 0 24 -10q16 -13 16 -26q0 -12 -12 -27l-108 -110q60 -74 60 -169 q0 -93 -60 -167l109 -112q10 -11 10 -24q0 -16 -15 -27q-13 -10 -23 -10q-13 0 -27 15l-110 112q-67 -53 -152 -53q-88 0 -153 53l-109 -112q-13 -15 -27 -15q-12 0 -23 10q-15 12 -15 28zM524.5 408q44.5 26 70.5 71t26 99q0 52 -26 96.5t-70.5 71t-97.5 26.5 q-54 0 -98.5 -26t-70.5 -70.5t-26 -97.5q0 -54 26 -99t70.5 -71t98.5 -26q53 0 97.5 26z" glyph-name="currency" horiz-adv-x="848" unicode="¤"/>
<glyph d="M915.5 1300q12.5 -13 12.5 -32q0 -16 -8 -29l-376 -651h230q31 0 31 -31q0 -14 -8 -21.5t-23 -7.5h-252v-189h253q15 0 23 -8t8 -22q0 -29 -31 -29h-253v-238q0 -21 -12 -32.5t-34 -11.5q-21 0 -33 11.5t-12 32.5v238h-252q-31 0 -31 30q0 14 8 21.5t23 7.5h252v189h-253 q-15 0 -23 8t-8 22t8 22t23 8h231l-376 651q-8 13 -8 29q0 19 12.5 32t30.5 13q24 0 38 -23l370 -659l372 659q12 23 38 23q17 0 29.5 -13z" glyph-name="yen" horiz-adv-x="953" unicode="¥"/>
<glyph d="M203 1264q0 22 12 34.5t33 12.5q23 0 35 -12t12 -35v-650q0 -47 -47 -47q-21 0 -33 12t-12 35v650zM203 372q0 22 12 34t33 12q23 0 35 -12t12 -34v-642q0 -23 -12 -35t-35 -12q-21 0 -33 12.5t-12 34.5v642z" glyph-name="brokenbar" horiz-adv-x="498" unicode="¦"/>
<glyph d="M817 246q-25 -63 -69 -108q53 -66 53 -162q0 -100 -50.5 -173t-129.5 -111t-161 -38q-110 0 -192 43t-134 124q-8 8 -12 18.5t-3 21.5q1 14 11 24t25 10q14 0 27 -9q49 -77 120.5 -111t154.5 -34q57 0 116 27t98 80t39 127q0 67 -36.5 112.5t-86 71.5t-123.5 54l-33 13 q-116 47 -190 90t-123.5 110.5t-49.5 166.5q0 76 25.5 139.5t69.5 106.5q-54 69 -54 166q0 95 49 167.5t129.5 112t169.5 39.5q101 0 186 -45t132 -123q18 -15 18 -34q0 -15 -11.5 -27.5t-28.5 -12.5q-13 0 -27 10q-48 77 -120.5 111t-153.5 34q-57 0 -116 -27t-98 -80 t-39 -127q0 -67 37.5 -113.5t88 -72.5t122.5 -53l31 -12q116 -47 190.5 -90t124 -110.5t49.5 -164.5q0 -78 -25 -141zM498 284q67 -24 115 -46t86 -52q29 39 45 88.5t16 104.5q0 78 -40 132t-103 89.5t-164 77.5l-41 16q-67 24 -115 46t-86 52q-28 -39 -45 -89t-17 -106 q0 -75 39.5 -128.5t104 -91t164.5 -77.5z" glyph-name="section" horiz-adv-x="906" unicode="§"/>
<glyph d="M244 1259q15 15 36 15q23 0 38 -14.5t15 -37.5q0 -22 -15 -36.5t-38 -14.5q-21 0 -36 14.5t-15 36.5t15 37zM513.5 1259q15.5 15 36.5 15q22 0 37 -14.5t15 -37.5q0 -22 -15 -36.5t-37 -14.5q-21 0 -36.5 15t-15.5 36q0 22 15.5 37z" glyph-name="dieresis" horiz-adv-x="820" unicode="¨"/>
<glyph d="M1116 1236.5q154 -89.5 244.5 -243.5t90.5 -336q0 -181 -90.5 -335t-244.5 -244.5t-336 -90.5q-183 0 -336 90t-242.5 244t-89.5 336q0 183 89 336.5t242.5 243t336.5 89.5q182 0 336 -89.5zM479.5 1175q-137.5 -80 -217.5 -217.5t-80 -300.5t80 -300.5t217.5 -218 t300.5 -80.5t300.5 80.5t218.5 218t81 300.5t-80.5 300.5t-218.5 217.5t-301 80t-300.5 -80zM557 911.5q35 58.5 96.5 93t135.5 34.5q61 0 110 -22.5t80.5 -54.5t45.5 -63q10 -16 11 -27q0 -12 -10.5 -23t-24.5 -11q-10 0 -16.5 4t-15.5 14q-25 44 -69 78t-114 34 q-52 0 -96 -25t-69.5 -67.5t-25.5 -92.5v-254q0 -49 25.5 -92t69.5 -69t96 -26q70 0 117.5 35.5t65.5 77.5q9 9 15.5 13.5t16.5 4.5q15 0 25 -11t10 -23q-7 -26 -23 -49q-32 -47 -89 -82t-137 -35q-73 0 -134 34.5t-96 93t-35 125.5v259q0 68 35 126.5z" glyph-name="copyright" horiz-adv-x="1562" unicode="©"/>
<glyph d="M350 1283.5q45 -44.5 45 -121.5v-276q0 -16 -4.5 -23t-22.5 -14q-29 -12 -69.5 -19.5t-85.5 -7.5q-76 0 -120.5 39.5t-44.5 108.5v2q0 74 44.5 114.5t121.5 40.5q37 0 70 -10.5t56 -23.5v66q0 55 -30.5 85t-81.5 30q-53 0 -99 -21q-4 -1 -8.5 -2t-9.5 -1q-9 0 -15.5 8 t-6.5 18q0 19 18 26q59 26 119 26q79 0 124 -44.5zM340 892v156q-23 13 -54.5 23t-64.5 10q-55 0 -86 -27.5t-31 -78.5q0 -49 30.5 -77.5t84.5 -28.5q57 0 121 23z" glyph-name="ordfeminine" horiz-adv-x="478" unicode="ª"/>
<glyph d="M436 142q0 -18 -12 -32t-27 -15l-8 -1q-17 0 -29 13l-315 342q-15 15 -15 33q0 21 18 39l309 334q17 17 36 12q17 -2 29 -15.5t12 -30.5q0 -18 -12 -30l-283 -308l285 -312q12 -13 12 -29zM801 142q0 -18 -12 -32t-28 -15l-8 -1q-16 0 -29 13l-314 342q-15 15 -15 33 q0 21 18 39l309 334q17 17 36 12q17 -2 29 -15.5t12 -30.5q0 -18 -12 -30l-283 -308l285 -312q12 -13 12 -29z" glyph-name="guillemotleft" horiz-adv-x="877" unicode="«"/>
<glyph d="M802.5 405.5q-12.5 12.5 -12.5 34.5v153l-699 1q-22 0 -34.5 12.5t-12.5 34.5q0 21 12.5 33t34.5 12h747q45 -2 45 -47v-199q0 -22 -12.5 -34.5t-33.5 -12.5q-22 0 -34.5 12.5z" glyph-name="logicalnot" horiz-adv-x="971" unicode="¬"/>
<glyph d="M101.5 449.5q-12.5 11.5 -12.5 30.5q0 21 12.5 32t34.5 11h564q23 0 35 -11t12 -32q0 -42 -47 -42h-564q-22 0 -34.5 11.5z" glyph-name="uni00AD" horiz-adv-x="838" unicode="­"/>
<glyph d="M1116 1236.5q154 -89.5 244.5 -243.5t90.5 -336q0 -181 -90.5 -335t-244.5 -244.5t-336 -90.5q-183 0 -336 90t-242.5 244t-89.5 336q0 183 89 336.5t242.5 243t336.5 89.5q182 0 336 -89.5zM1082.5 135q138.5 81 220 219.5t81.5 302.5q0 165 -81.5 303t-220 218.5 t-302.5 80.5t-302.5 -80.5t-219 -218.5t-80.5 -303q0 -164 80.5 -302.5t219 -219.5t302.5 -81t302.5 81zM1000.5 1002q77.5 -60 77.5 -199v-44q0 -94 -43 -157t-135 -86l148 -188q8 -11 8 -22q0 -14 -9.5 -25t-22.5 -11q-15 0 -24 11l-178 225q-8 -1 -27 -1h-175v-200 q0 -15 -9 -24t-25 -9t-24.5 9t-8.5 24v724q0 14 9.5 23.5t23.5 9.5h210q127 0 204.5 -60zM1011 804q0 88 -48.5 140t-165.5 52h-177v-430h175q100 0 158 43t58 151v44z" glyph-name="registered" horiz-adv-x="1562" unicode="®"/>
<glyph d="M615 1267q36 0 36 -32q0 -37 -36 -37h-314q-35 0 -35 36q0 33 35 33h314z" glyph-name="macron" horiz-adv-x="867" unicode="¯"/>
<glyph d="M213.5 852q-57.5 35 -91.5 94t-34 128t33.5 127t91.5 91.5t127 33.5q70 0 128.5 -33.5t93 -91.5t34.5 -127t-34.5 -128t-93 -94t-128.5 -35q-69 0 -126.5 35zM434 914.5q42 24.5 66 66.5t24 91q0 50 -24 92.5t-66 67t-92 24.5t-92 -24.5t-66.5 -67t-24.5 -92.5 q0 -49 24.5 -91t66.5 -66.5t92 -24.5t92 24.5z" glyph-name="degree" horiz-adv-x="632" unicode="°"/>
<glyph d="M805.5 115.5q12.5 -11.5 12.5 -32.5q0 -41 -48 -41h-664q-22 0 -34.5 11t-12.5 30q0 21 12.5 32.5t34.5 11.5h298q-13 13 -13 37v292h-292q-22 0 -34.5 11.5t-12.5 31.5q0 21 12.5 32.5t34.5 11.5h292v293q0 22 11.5 34t31.5 12q21 0 32.5 -12t11.5 -34v-293h293 q22 0 34 -11.5t12 -33.5q0 -20 -12 -31t-34 -11h-293v-292q0 -25 -14 -37h306q23 0 35.5 -11.5z" glyph-name="plusminus" horiz-adv-x="870" unicode="±"/>
<glyph d="M59.5 846.5q-9.5 9.5 -9.5 22.5q0 10 9 23l255 288q34 38 51.5 73.5t17.5 75.5v9q0 47 -34.5 81.5t-88.5 34.5q-50 0 -81.5 -19.5t-55.5 -48.5q-5 -4 -10 -6.5t-10 -2.5q-14 0 -24 9t-10 21q0 17 14 27q31 35 73.5 59t108.5 24q51 0 92.5 -23.5t65 -63.5t23.5 -88v-14 q0 -46 -20 -91.5t-63 -93.5l-217 -243h292q32 0 32 -31q0 -32 -32 -32h-356q-13 0 -22.5 9.5z" glyph-name="uni00B2" horiz-adv-x="529" unicode="²"/>
<glyph d="M404 1224q55 -51 55 -140v-44q0 -58 -28.5 -106.5t-78 -76.5t-109.5 -28q-55 0 -92.5 17.5t-69.5 44.5q-16 8 -23 15.5t-7 20.5q0 11 8 21t23 10q10 0 23 -9q3 -3 23 -20t51 -28t68 -11q42 0 76 20.5t53.5 55.5t19.5 76v42q0 64 -43 100.5t-109 36.5h-31q-12 0 -20.5 8 t-9.5 21q0 16 10 25l159 172h-253q-16 0 -24.5 7.5t-8.5 21.5q0 16 9 24.5t24 8.5h307q16 0 24 -8.5t8 -21.5q0 -18 -15 -30l-163 -174h1q88 0 143 -51z" glyph-name="uni00B3" horiz-adv-x="529" unicode="³"/>
<glyph d="M172 1130q-10 -12 -27 -12q-15 0 -23.5 10t-8.5 24q0 10 4 18l129 179q7 13 15 16.5t19 3.5q16 0 28.5 -13t12.5 -29q0 -14 -12 -28z" glyph-name="acute" horiz-adv-x="514" unicode="´"/>
<glyph d="M845.5 947q11.5 -12 11.5 -33v-805q0 -29 -8.5 -46t-36.5 -27q-45 -17 -121.5 -34t-165.5 -17q-86 0 -154 41t-106 114v-442q0 -20 -11 -32t-31 -12q-21 0 -32.5 12.5t-11.5 33.5v1214q0 22 11.5 33.5t32.5 11.5q20 0 31 -11.5t11 -33.5v-605q0 -68 33 -123t90.5 -86.5 t127.5 -31.5q75 0 131 12.5t105 30.5l20 6v797q0 22 11 33.5t31 11.5t31.5 -12z" glyph-name="uni00B5" horiz-adv-x="1036" unicode="µ"/>
<glyph d="M1003.5 1298q13.5 -13 13.5 -39v-1214q0 -21 -12.5 -33t-34.5 -12q-20 0 -32 13t-12 35v1172h-302v-1172q0 -23 -11.5 -35.5t-32.5 -12.5q-22 0 -34 12t-12 33v599h-76q-115 0 -200.5 41.5t-131.5 118.5t-46 181q0 99 46 172.5t131.5 113.5t200.5 40h508q24 0 37.5 -13z " glyph-name="paragraph" horiz-adv-x="1220" unicode="¶"/>
<glyph d="M145.5 435q-26.5 27 -26.5 64q0 35 26.5 61.5t62.5 26.5q37 0 63.5 -26.5t26.5 -61.5q0 -38 -26.5 -64.5t-63.5 -26.5q-36 0 -62.5 27z" glyph-name="periodcentered" horiz-adv-x="396" unicode="·"/>
<glyph d="M229 -3h49l-18 -59q72 -8 110.5 -40t38.5 -87q0 -106 -157 -153l-33 -10q-8 -2 -10 -2q-12 0 -20 8.5t-8 21.5v3q0 16 18 22l28 8q60 19 90.5 42t30.5 58q0 38 -25 56t-87 27q-12 0 -18.5 6t-6.5 18q0 7 1 11z" glyph-name="cedilla" horiz-adv-x="489" unicode="¸"/>
<glyph d="M185 843.5q-8 8.5 -8 23.5v558l-66 -42q-4 -3 -14 -3q-13 0 -21.5 9.5t-8.5 21.5q2 17 16 27l106 66q5 3 9.5 5t10.5 2q15 0 23 -9t8 -22v-613q0 -15 -8 -23.5t-23 -8.5q-16 0 -24 8.5z" glyph-name="uni00B9" horiz-adv-x="443" unicode="¹"/>
<glyph d="M51 1160q0 47 24 85.5t65 60.5t90 22t90 -22t65 -60.5t24 -85.5v-171q0 -46 -24 -84.5t-65 -60.5t-90 -22t-90 22t-65 60.5t-24 84.5v171zM107 992q0 -50 35.5 -83t87.5 -33t87.5 33t35.5 83v166q0 49 -35.5 82.5t-87.5 33.5t-87.5 -33.5t-35.5 -82.5v-166z" glyph-name="ordmasculine" horiz-adv-x="460" unicode="º"/>
<glyph d="M373 483l-283 308q-12 14 -12 30q0 17 12 30.5t29 15.5q20 5 37 -12l308 -334q19 -19 19 -39q0 -16 -15 -33l-315 -342q-13 -13 -29 -13l-8 1q-16 1 -28 15t-12 32q0 16 12 29zM738 483l-283 308q-12 14 -12 30q0 17 12 30.5t29 15.5q9 2 19 -1t17 -11l309 -334 q19 -19 19 -39q0 -16 -15 -33l-315 -342q-13 -13 -29 -13l-8 1q-16 1 -28 15t-12 32q0 16 12 29z" glyph-name="guillemotright" horiz-adv-x="878" unicode="»"/>
<glyph d="M185 643.5q-8 8.5 -8 23.5v558l-66 -42q-4 -3 -14 -3q-13 0 -21.5 9.5t-8.5 21.5q2 17 16 27l106 66q5 3 9.5 5t10.5 2q15 0 23 -9t8 -22v-613q0 -15 -8 -23.5t-23 -8.5q-16 0 -24 8.5zM316 27q-13 -30 -35 -26q-17 1 -26.5 9.5t-9.5 22.5q0 12 5 21l577 1232 q5 12 15.5 19t22.5 6q34 -3 34 -31q0 -14 -7 -28zM1075.5 6.5q-8.5 8.5 -8.5 23.5v128h-264q-15 0 -24 9.5t-9 26.5q0 7 3 16l205 441q7 20 30 20q14 0 22.5 -7t8.5 -20q0 -9 -3 -18l-192 -404h223v103q0 16 8.5 24.5t24.5 8.5q30 0 30 -33v-103h59q15 0 23 -8t8 -24 q0 -15 -8.5 -23.5t-22.5 -8.5h-59v-128q0 -15 -7.5 -23.5t-22.5 -8.5q-16 0 -24.5 8.5z" glyph-name="onequarter" horiz-adv-x="1423" unicode="¼"/>
<glyph d="M185 643.5q-8 8.5 -8 23.5v558l-66 -42q-4 -3 -14 -3q-13 0 -21.5 9.5t-8.5 21.5q2 17 16 27l106 66q5 3 9.5 5t10.5 2q15 0 23 -9t8 -22v-613q0 -15 -8 -23.5t-23 -8.5q-16 0 -24 8.5zM271 27q-13 -30 -35 -26q-17 1 -26.5 9.5t-9.5 22.5q0 12 5 21l577 1232 q5 12 15.5 19t22.5 6q34 -3 34 -31q0 -14 -7 -28zM722.5 7.5q-9.5 9.5 -9.5 22.5q0 10 9 23l255 288q34 38 51.5 73.5t17.5 75.5v9q0 47 -34.5 81.5t-88.5 34.5q-50 0 -81.5 -19.5t-55.5 -48.5q-5 -4 -10 -6.5t-10 -2.5q-14 0 -24 9t-10 21q0 17 14 27q31 35 73.5 59 t108.5 24q51 0 92.5 -23.5t65 -63.5t23.5 -88v-14q0 -46 -20 -91.5t-63 -93.5l-217 -243h292q32 0 32 -31q0 -32 -32 -32h-356q-13 0 -22.5 9.5z" glyph-name="onehalf" horiz-adv-x="1336" unicode="½"/>
<glyph d="M404 1024q55 -51 55 -140v-44q0 -58 -28.5 -106.5t-78 -76.5t-109.5 -28q-55 0 -92.5 17.5t-69.5 44.5q-16 8 -23 15.5t-7 20.5q0 11 8 21t23 10q10 0 23 -9q3 -3 23 -20t51 -28t68 -11q42 0 76 20.5t53.5 55.5t19.5 76v42q0 64 -43 100.5t-109 36.5h-31q-12 0 -20.5 8 t-9.5 21q0 16 10 25l159 172h-253q-16 0 -24.5 7.5t-8.5 21.5q0 16 9 24.5t24 8.5h307q16 0 24 -8.5t8 -21.5q0 -18 -15 -30l-163 -174h1q88 0 143 -51zM380 27q-13 -30 -35 -26q-17 1 -26.5 9.5t-9.5 22.5q0 12 5 21l577 1232q5 12 15.5 19t22.5 6q34 -3 34 -31 q0 -14 -7 -28zM1095.5 6.5q-8.5 8.5 -8.5 23.5v128h-264q-15 0 -24 9.5t-9 26.5q0 7 3 16l205 441q7 20 30 20q14 0 22.5 -7t8.5 -20q0 -9 -3 -18l-192 -404h223v103q0 16 8.5 24.5t24.5 8.5q30 0 30 -33v-103h59q15 0 23 -8t8 -24q0 -15 -8.5 -23.5t-22.5 -8.5h-59v-128 q0 -15 -7.5 -23.5t-22.5 -8.5q-16 0 -24.5 8.5z" glyph-name="threequarters" horiz-adv-x="1310" unicode="¾"/>
<glyph d="M653 852q-20 -21 -50 -21t-50 21t-20 51q0 29 20 49t50 20t50 -20t20 -49q0 -30 -20 -51zM624 619q11 -10 11 -28q-11 -81 -47.5 -135.5t-112.5 -117.5l-49 -43q-74 -63 -116 -104.5t-69.5 -89.5t-27.5 -102v-20q0 -81 39.5 -138t107 -86.5t149.5 -29.5q99 0 169 37.5 t136 114.5q2 2 9 8.5t13.5 9.5t13.5 3q18 0 29.5 -12t11.5 -31t-14 -34q-68 -83 -157.5 -134.5t-212.5 -51.5q-107 0 -195 41t-139 117.5t-51 179.5v22q0 67 30 124t76 104t127 116q44 38 66 58q55 49 85.5 94.5t46.5 110.5q5 12 15 19.5t25 7.5q20 0 31 -10z" glyph-name="questiondown" horiz-adv-x="944" unicode="¿"/>
<glyph d="M991 39q0 -18 -12.5 -30t-34.5 -12q-32 0 -40 26l-123 369h-536l-124 -369q-4 -13 -15 -19.5t-25 -6.5q-20 0 -33 12t-13 30q0 11 4 20l431 1229q9 25 44 25q33 0 42 -25l431 -1229q4 -14 4 -20zM751 480l-238 711l-238 -711h476zM386 1634q0 17 12.5 30t28.5 13 q11 0 18.5 -3.5t14.5 -16.5l129 -179q4 -8 4 -18q0 -14 -8.5 -24t-23.5 -10t-27 12l-137 169q-11 12 -11 27z" glyph-name="Agrave" horiz-adv-x="1026" unicode="À"/>
<glyph d="M991 39q0 -18 -12.5 -30t-34.5 -12q-32 0 -40 26l-123 369h-536l-124 -369q-4 -13 -15 -19.5t-25 -6.5q-20 0 -33 12t-13 30q0 11 4 20l431 1229q9 25 44 25q33 0 42 -25l431 -1229q4 -14 4 -20zM751 480l-238 711l-238 -711h476zM512 1440q-10 -12 -27 -12 q-15 0 -23.5 10t-8.5 24q0 10 4 18l129 179q7 13 15 16.5t19 3.5q16 0 28.5 -13t12.5 -29q0 -14 -12 -28z" glyph-name="Aacute" horiz-adv-x="1026" unicode="Á"/>
<glyph d="M991 39q0 -18 -12.5 -30t-34.5 -12q-32 0 -40 26l-123 369h-536l-124 -369q-4 -13 -15 -19.5t-25 -6.5q-20 0 -33 12t-13 30q0 11 4 20l431 1229q9 25 44 25q33 0 42 -25l431 -1229q4 -14 4 -20zM751 480l-238 711l-238 -711h476zM514 1559l-132 -118q-6 -6 -12 -7.5 t-14 -1.5q-13 0 -23 10.5t-10 20.5t5 17t17 17l141 126q13 11 28 11q10 0 28 -11l140 -126q12 -9 17 -16.5t5 -17.5t-11 -20.5t-22 -10.5q-14 0 -26 9z" glyph-name="Acircumflex" horiz-adv-x="1026" unicode="Â"/>
<glyph d="M991 39q0 -18 -12.5 -30t-34.5 -12q-32 0 -40 26l-123 369h-536l-124 -369q-4 -13 -15 -19.5t-25 -6.5q-20 0 -33 12t-13 30q0 11 4 20l431 1229q9 25 44 25q33 0 42 -25l431 -1229q4 -14 4 -20zM751 480l-238 711l-238 -711h476zM720.5 1606q9.5 -9 9.5 -22 q0 -9 -2.5 -15.5t-10.5 -15.5q-25 -31 -55 -46t-69 -15q-30 0 -51.5 9t-48.5 27q-23 16 -39 23.5t-38 7.5q-23 0 -42.5 -10.5t-42.5 -34.5q-5 -4 -10 -7.5t-11 -3.5q-15 0 -24.5 9.5t-9.5 22.5q0 9 2.5 15.5t11.5 15.5q27 30 56.5 45t65.5 15q31 0 53 -9.5t48 -27.5 q24 -15 40 -22.5t37 -7.5q49 0 85 45q6 6 10.5 8.5t10.5 2.5q15 0 24.5 -9z" glyph-name="Atilde" horiz-adv-x="1026" unicode="Ã"/>
<glyph d="M991 39q0 -18 -12.5 -30t-34.5 -12q-32 0 -40 26l-123 369h-536l-124 -369q-4 -13 -15 -19.5t-25 -6.5q-20 0 -33 12t-13 30q0 11 4 20l431 1229q9 25 44 25q33 0 42 -25l431 -1229q4 -14 4 -20zM751 480l-238 711l-238 -711h476zM341 1577q15 15 36 15q23 0 38 -14.5 t15 -37.5q0 -22 -15 -36.5t-38 -14.5q-21 0 -36 14.5t-15 36.5t15 37zM610.5 1577q15.5 15 36.5 15q22 0 37 -14.5t15 -37.5q0 -22 -15 -36.5t-37 -14.5q-21 0 -36.5 15t-15.5 36q0 22 15.5 37z" glyph-name="Adieresis" horiz-adv-x="1026" unicode="Ä"/>
<glyph d="M991 39q0 -18 -12.5 -30t-34.5 -12q-32 0 -40 26l-123 369h-536l-124 -369q-4 -13 -15 -19.5t-25 -6.5q-20 0 -33 12t-13 30q0 11 4 20l431 1229q9 25 44 25q33 0 42 -25l431 -1229q4 -14 4 -20zM751 480l-238 711l-238 -711h476zM429.5 1512q-34.5 35 -34.5 84 t34.5 83.5t83.5 34.5t83.5 -34.5t34.5 -83.5t-34.5 -84t-83.5 -35t-83.5 35zM563 1545q21 21 21 50t-21 50t-50 21t-49.5 -21t-20.5 -50t20.5 -50t49.5 -21t50 21z" glyph-name="Aring" horiz-adv-x="1026" unicode="Å"/>
<glyph d="M1607 46q0 -22 -11.5 -34t-33.5 -12h-602q-21 0 -31.5 12.5t-10.5 35.5v277h-4h-586l-224 -308q-17 -20 -37 -20q-16 0 -28 11q-20 15 -20 34q0 16 12 29l886 1219q16 18 32 19q10 2 16 2h597q45 0 45 -45q0 -22 -11.5 -34t-33.5 -12h-553v-502h439q22 0 33.5 -11 t11.5 -32t-11.5 -32t-33.5 -11h-439v-542h553q45 0 45 -44zM918 419v716l-522 -717l518 1h4z" glyph-name="AE" horiz-adv-x="1698" unicode="Æ"/>
<glyph d="M864.5 173q13.5 -14 13.5 -32q0 -20 -19 -35q-72 -56 -144 -87t-175 -34l-11 -37q72 -8 110.5 -40t38.5 -87q0 -106 -157 -153l-34 -10q-6 -2 -10 -2q-11 0 -19 8.5t-9 21.5q0 19 19 25l27 8q60 19 91 42t31 58q0 38 -25.5 56t-87.5 27q-12 0 -18.5 6t-6.5 18q0 7 1 11 l12 49q-106 7 -193 65t-137 151.5t-50 204.5v495q0 117 53.5 214t147 153t207.5 56q107 0 183.5 -29.5t155.5 -91.5q19 -15 19 -35q0 -18 -13.5 -32t-31.5 -14q-12 0 -36 16q-68 50 -128 73t-150 23q-87 0 -159.5 -43.5t-115 -120t-42.5 -172.5v-489q0 -95 43 -171.5 t116 -120t159 -43.5q89 0 150 23t127 73q23 16 36 16q18 0 31.5 -14z" glyph-name="Ccedilla" horiz-adv-x="964" unicode="Ç"/>
<glyph d="M245 0q-21 0 -31.5 12.5t-10.5 35.5v1218q0 23 12.5 34t34.5 11h598q21 0 33 -11.5t12 -33.5t-12 -34t-33 -12h-553v-502h439q22 0 33.5 -11t11.5 -32t-11.5 -32t-33.5 -11h-439v-542h553q21 0 33 -11.5t12 -32.5q0 -22 -12 -34t-33 -12h-603zM420 1634q0 17 12.5 30 t28.5 13q11 0 18.5 -3.5t14.5 -16.5l129 -179q4 -8 4 -18q0 -14 -8.5 -24t-23.5 -10t-27 12l-137 169q-11 12 -11 27z" glyph-name="Egrave" horiz-adv-x="984" unicode="È"/>
<glyph d="M245 0q-21 0 -31.5 12.5t-10.5 35.5v1218q0 23 12.5 34t34.5 11h598q21 0 33 -11.5t12 -33.5t-12 -34t-33 -12h-553v-502h439q22 0 33.5 -11t11.5 -32t-11.5 -32t-33.5 -11h-439v-542h553q21 0 33 -11.5t12 -32.5q0 -22 -12 -34t-33 -12h-603zM546 1440q-10 -12 -27 -12 q-15 0 -23.5 10t-8.5 24q0 10 4 18l129 179q7 13 15 16.5t19 3.5q16 0 28.5 -13t12.5 -29q0 -14 -12 -28z" glyph-name="Eacute" horiz-adv-x="984" unicode="É"/>
<glyph d="M245 0q-21 0 -31.5 12.5t-10.5 35.5v1218q0 23 12.5 34t34.5 11h598q21 0 33 -11.5t12 -33.5t-12 -34t-33 -12h-553v-502h439q22 0 33.5 -11t11.5 -32t-11.5 -32t-33.5 -11h-439v-542h553q21 0 33 -11.5t12 -32.5q0 -22 -12 -34t-33 -12h-603zM549 1559l-132 -118 q-6 -6 -12 -7.5t-14 -1.5q-13 0 -23 10.5t-10 20.5t5 17t17 17l141 126q13 11 28 11q10 0 28 -11l140 -126q12 -9 17 -16.5t5 -17.5t-11 -20.5t-22 -10.5q-14 0 -26 9z" glyph-name="Ecircumflex" horiz-adv-x="984" unicode="Ê"/>
<glyph d="M245 0q-21 0 -31.5 12.5t-10.5 35.5v1218q0 23 12.5 34t34.5 11h598q21 0 33 -11.5t12 -33.5t-12 -34t-33 -12h-553v-502h439q22 0 33.5 -11t11.5 -32t-11.5 -32t-33.5 -11h-439v-542h553q21 0 33 -11.5t12 -32.5q0 -22 -12 -34t-33 -12h-603zM375 1577q15 15 36 15 q23 0 38 -14.5t15 -37.5q0 -22 -15 -36.5t-38 -14.5q-21 0 -36 14.5t-15 36.5t15 37zM644.5 1577q15.5 15 36.5 15q22 0 37 -14.5t15 -37.5q0 -22 -15 -36.5t-37 -14.5q-21 0 -36.5 15t-15.5 36q0 22 15.5 37z" glyph-name="Edieresis" horiz-adv-x="984" unicode="Ë"/>
<glyph d="M295 42q0 -21 -12.5 -32.5t-34.5 -11.5q-21 0 -33 11.5t-12 32.5v1227q0 21 12 32.5t33 11.5q22 0 34.5 -11.5t12.5 -32.5v-1227zM121 1634q0 17 12.5 30t28.5 13q11 0 18.5 -3.5t14.5 -16.5l129 -179q4 -8 4 -18q0 -14 -8.5 -24t-23.5 -10t-27 12l-137 169 q-11 12 -11 27z" glyph-name="Igrave" horiz-adv-x="498" unicode="Ì"/>
<glyph d="M295 42q0 -21 -12.5 -32.5t-34.5 -11.5q-21 0 -33 11.5t-12 32.5v1227q0 21 12 32.5t33 11.5q22 0 34.5 -11.5t12.5 -32.5v-1227zM247 1440q-10 -12 -27 -12q-15 0 -23.5 10t-8.5 24q0 10 4 18l129 179q7 13 15 16.5t19 3.5q16 0 28.5 -13t12.5 -29q0 -14 -12 -28z" glyph-name="Iacute" horiz-adv-x="498" unicode="Í"/>
<glyph d="M295 42q0 -21 -12.5 -32.5t-34.5 -11.5q-21 0 -33 11.5t-12 32.5v1227q0 21 12 32.5t33 11.5q22 0 34.5 -11.5t12.5 -32.5v-1227zM249 1559l-132 -118q-6 -6 -12 -7.5t-14 -1.5q-13 0 -23 10.5t-10 20.5t5 17t17 17l141 126q13 11 28 11q10 0 28 -11l140 -126 q12 -9 17 -16.5t5 -17.5t-11 -20.5t-22 -10.5q-14 0 -26 9z" glyph-name="Icircumflex" horiz-adv-x="498" unicode="Î"/>
<glyph d="M295 42q0 -21 -12.5 -32.5t-34.5 -11.5q-21 0 -33 11.5t-12 32.5v1227q0 21 12 32.5t33 11.5q22 0 34.5 -11.5t12.5 -32.5v-1227zM76 1577q15 15 36 15q23 0 38 -14.5t15 -37.5q0 -22 -15 -36.5t-38 -14.5q-21 0 -36 14.5t-15 36.5t15 37zM345.5 1577q15.5 15 36.5 15 q22 0 37 -14.5t15 -37.5q0 -22 -15 -36.5t-37 -14.5q-21 0 -36.5 15t-15.5 36q0 22 15.5 37z" glyph-name="Idieresis" horiz-adv-x="498" unicode="Ï"/>
<glyph d="M777 1253.5q96 -57.5 151.5 -153.5t55.5 -207v-475q0 -111 -55 -207t-151 -153.5t-212 -57.5h-2h-4h-311h-1q-21 0 -33 11.5t-12 33.5v575h-171q-35 0 -35 36q0 33 35 33h171v577q0 22 12 33.5t33 11.5h1h314h1q117 0 213 -57.5zM893 892q0 89 -45 164.5t-120.5 119.5 t-163.5 44h-1h-269v-531h183q35 0 35 -32q0 -37 -35 -37h-183v-530h268h2q91 0 166.5 45t119 120.5t43.5 163.5v473z" glyph-name="Eth" horiz-adv-x="1095" unicode="Ð"/>
<glyph d="M1064 1277v-1242q0 -19 -11.5 -29t-28.5 -10q-28 0 -39 19l-690 1115v-1086q0 -24 -12.5 -36t-34.5 -12t-33.5 13t-11.5 35v1236q0 18 13 30.5t31 12.5q28 0 40 -20l686 -1107v1081q0 22 12 34t35 12q44 0 44 -46zM840.5 1606q9.5 -9 9.5 -22q0 -9 -2.5 -15.5 t-10.5 -15.5q-25 -31 -55 -46t-69 -15q-30 0 -51.5 9t-48.5 27q-23 16 -39 23.5t-38 7.5q-23 0 -42.5 -10.5t-42.5 -34.5q-5 -4 -10 -7.5t-11 -3.5q-15 0 -24.5 9.5t-9.5 22.5q0 9 2.5 15.5t11.5 15.5q27 30 56.5 45t65.5 15q31 0 53 -9.5t48 -27.5q24 -15 40 -22.5t37 -7.5 q49 0 85 45q6 6 10.5 8.5t10.5 2.5q15 0 24.5 -9z" glyph-name="Ntilde" horiz-adv-x="1268" unicode="Ñ"/>
<glyph d="M112 903q0 119 55 215.5t150.5 152t211.5 55.5q119 0 215 -55t151 -151.5t55 -216.5v-496q0 -120 -55 -216t-151.5 -151t-214.5 -55q-115 0 -210.5 55t-151 151.5t-55.5 215.5v496zM202 411q0 -98 44 -174.5t119 -119t164 -42.5q92 0 167.5 42.5t119 119t43.5 174.5v489 q0 98 -43.5 174.5t-119 119t-167.5 42.5q-89 0 -164 -42.5t-119 -119t-44 -174.5v-489zM403 1634q0 17 12.5 30t28.5 13q11 0 18.5 -3.5t14.5 -16.5l129 -179q4 -8 4 -18q0 -14 -8.5 -24t-23.5 -10t-27 12l-137 169q-11 12 -11 27z" glyph-name="Ograve" horiz-adv-x="1061" unicode="Ò"/>
<glyph d="M112 903q0 119 55 215.5t150.5 152t211.5 55.5q119 0 215 -55t151 -151.5t55 -216.5v-496q0 -120 -55 -216t-151.5 -151t-214.5 -55q-115 0 -210.5 55t-151 151.5t-55.5 215.5v496zM202 411q0 -98 44 -174.5t119 -119t164 -42.5q92 0 167.5 42.5t119 119t43.5 174.5v489 q0 98 -43.5 174.5t-119 119t-167.5 42.5q-89 0 -164 -42.5t-119 -119t-44 -174.5v-489zM529 1440q-10 -12 -27 -12q-15 0 -23.5 10t-8.5 24q0 10 4 18l129 179q7 13 15 16.5t19 3.5q16 0 28.5 -13t12.5 -29q0 -14 -12 -28z" glyph-name="Oacute" horiz-adv-x="1061" unicode="Ó"/>
<glyph d="M112 903q0 119 55 215.5t150.5 152t211.5 55.5q119 0 215 -55t151 -151.5t55 -216.5v-496q0 -120 -55 -216t-151.5 -151t-214.5 -55q-115 0 -210.5 55t-151 151.5t-55.5 215.5v496zM202 411q0 -98 44 -174.5t119 -119t164 -42.5q92 0 167.5 42.5t119 119t43.5 174.5v489 q0 98 -43.5 174.5t-119 119t-167.5 42.5q-89 0 -164 -42.5t-119 -119t-44 -174.5v-489zM532 1559l-132 -118q-6 -6 -12 -7.5t-14 -1.5q-13 0 -23 10.5t-10 20.5t5 17t17 17l141 126q13 11 28 11q10 0 28 -11l140 -126q12 -9 17 -16.5t5 -17.5t-11 -20.5t-22 -10.5 q-14 0 -26 9z" glyph-name="Ocircumflex" horiz-adv-x="1061" unicode="Ô"/>
<glyph d="M112 903q0 119 55 215.5t150.5 152t211.5 55.5q119 0 215 -55t151 -151.5t55 -216.5v-496q0 -120 -55 -216t-151.5 -151t-214.5 -55q-115 0 -210.5 55t-151 151.5t-55.5 215.5v496zM202 411q0 -98 44 -174.5t119 -119t164 -42.5q92 0 167.5 42.5t119 119t43.5 174.5v489 q0 98 -43.5 174.5t-119 119t-167.5 42.5q-89 0 -164 -42.5t-119 -119t-44 -174.5v-489zM737.5 1606q9.5 -9 9.5 -22q0 -9 -2.5 -15.5t-10.5 -15.5q-25 -31 -55 -46t-69 -15q-30 0 -51.5 9t-48.5 27q-23 16 -39 23.5t-38 7.5q-23 0 -42.5 -10.5t-42.5 -34.5q-5 -4 -10 -7.5 t-11 -3.5q-15 0 -24.5 9.5t-9.5 22.5q0 9 2.5 15.5t11.5 15.5q27 30 56.5 45t65.5 15q31 0 53 -9.5t48 -27.5q24 -15 40 -22.5t37 -7.5q49 0 85 45q6 6 10.5 8.5t10.5 2.5q15 0 24.5 -9z" glyph-name="Otilde" horiz-adv-x="1061" unicode="Õ"/>
<glyph d="M112 903q0 119 55 215.5t150.5 152t211.5 55.5q119 0 215 -55t151 -151.5t55 -216.5v-496q0 -120 -55 -216t-151.5 -151t-214.5 -55q-115 0 -210.5 55t-151 151.5t-55.5 215.5v496zM202 411q0 -98 44 -174.5t119 -119t164 -42.5q92 0 167.5 42.5t119 119t43.5 174.5v489 q0 98 -43.5 174.5t-119 119t-167.5 42.5q-89 0 -164 -42.5t-119 -119t-44 -174.5v-489zM358 1577q15 15 36 15q23 0 38 -14.5t15 -37.5q0 -22 -15 -36.5t-38 -14.5q-21 0 -36 14.5t-15 36.5t15 37zM627.5 1577q15.5 15 36.5 15q22 0 37 -14.5t15 -37.5q0 -22 -15 -36.5 t-37 -14.5q-21 0 -36.5 15t-15.5 36q0 22 15.5 37z" glyph-name="Odieresis" horiz-adv-x="1061" unicode="Ö"/>
<glyph d="M888 81q0 -15 -14 -28q-15 -15 -29 -15q-13 0 -29 14l-345 350l-344 -349q-16 -16 -31 -16t-30 15q-13 13 -13 27q0 17 14 31l346 351l-338 343q-15 15 -15 29q0 16 15 29q15 15 29 15q16 0 30 -16l336 -341l335 340q15 15 30 15q14 0 30 -14q15 -13 15 -28t-16 -31 l-336 -341l345 -350q15 -13 15 -30z" glyph-name="multiply" horiz-adv-x="938" unicode="×"/>
<glyph d="M921.5 1062.5q28.5 -74.5 28.5 -159.5v-496q0 -120 -55 -216t-151.5 -151t-214.5 -55q-123 0 -222 62l-41 -89q-15 -24 -41 -21q-17 0 -25 9.5t-8 25.5q0 19 11 39l40 85q-62 58 -96.5 138t-34.5 173v496q0 119 55 215.5t150.5 152t211.5 55.5q70 0 134 -20t116 -57 l41 89q7 12 17 17.5t22 3.5q17 -1 26.5 -10.5t9.5 -25.5q0 -18 -10 -35l-44 -94q52 -57 80.5 -131.5zM223 286.5q21 -57.5 60 -102.5l456 981q-43 34 -97 52.5t-113 18.5q-89 0 -164 -42.5t-119 -119t-44 -174.5v-489q0 -67 21 -124.5zM859 900q0 116 -61 202l-452 -973 q39 -26 86 -40t97 -14q92 0 167.5 42.5t119 119t43.5 174.5v489z" glyph-name="Oslash" horiz-adv-x="1061" unicode="Ø"/>
<glyph d="M361 40q-94 55 -149.5 151.5t-55.5 215.5v861q0 22 11.5 33.5t33.5 11.5t33.5 -11.5t11.5 -33.5v-857q0 -98 43 -174.5t116.5 -119t163.5 -42.5q91 0 164.5 42t115 118.5t41.5 175.5v857q0 21 12.5 33t33.5 12q22 0 33.5 -11.5t11.5 -33.5v-861q0 -120 -53.5 -216.5 t-148 -151t-212.5 -54.5q-112 0 -206 55zM437 1634q0 17 12.5 30t28.5 13q11 0 18.5 -3.5t14.5 -16.5l129 -179q4 -8 4 -18q0 -14 -8.5 -24t-23.5 -10t-27 12l-137 169q-11 12 -11 27z" glyph-name="Ugrave" horiz-adv-x="1137" unicode="Ù"/>
<glyph d="M361 40q-94 55 -149.5 151.5t-55.5 215.5v861q0 22 11.5 33.5t33.5 11.5t33.5 -11.5t11.5 -33.5v-857q0 -98 43 -174.5t116.5 -119t163.5 -42.5q91 0 164.5 42t115 118.5t41.5 175.5v857q0 21 12.5 33t33.5 12q22 0 33.5 -11.5t11.5 -33.5v-861q0 -120 -53.5 -216.5 t-148 -151t-212.5 -54.5q-112 0 -206 55zM563 1440q-10 -12 -27 -12q-15 0 -23.5 10t-8.5 24q0 10 4 18l129 179q7 13 15 16.5t19 3.5q16 0 28.5 -13t12.5 -29q0 -14 -12 -28z" glyph-name="Uacute" horiz-adv-x="1137" unicode="Ú"/>
<glyph d="M361 40q-94 55 -149.5 151.5t-55.5 215.5v861q0 22 11.5 33.5t33.5 11.5t33.5 -11.5t11.5 -33.5v-857q0 -98 43 -174.5t116.5 -119t163.5 -42.5q91 0 164.5 42t115 118.5t41.5 175.5v857q0 21 12.5 33t33.5 12q22 0 33.5 -11.5t11.5 -33.5v-861q0 -120 -53.5 -216.5 t-148 -151t-212.5 -54.5q-112 0 -206 55zM566 1559l-132 -118q-6 -6 -12 -7.5t-14 -1.5q-13 0 -23 10.5t-10 20.5t5 17t17 17l141 126q13 11 28 11q10 0 28 -11l140 -126q12 -9 17 -16.5t5 -17.5t-11 -20.5t-22 -10.5q-14 0 -26 9z" glyph-name="Ucircumflex" horiz-adv-x="1137" unicode="Û"/>
<glyph d="M361 40q-94 55 -149.5 151.5t-55.5 215.5v861q0 22 11.5 33.5t33.5 11.5t33.5 -11.5t11.5 -33.5v-857q0 -98 43 -174.5t116.5 -119t163.5 -42.5q91 0 164.5 42t115 118.5t41.5 175.5v857q0 21 12.5 33t33.5 12q22 0 33.5 -11.5t11.5 -33.5v-861q0 -120 -53.5 -216.5 t-148 -151t-212.5 -54.5q-112 0 -206 55zM393 1577q15 15 36 15q23 0 38 -14.5t15 -37.5q0 -22 -15 -36.5t-38 -14.5q-21 0 -36 14.5t-15 36.5t15 37zM662.5 1577q15.5 15 36.5 15q22 0 37 -14.5t15 -37.5q0 -22 -15 -36.5t-37 -14.5q-21 0 -36.5 15t-15.5 36q0 22 15.5 37z " glyph-name="Udieresis" horiz-adv-x="1137" unicode="Ü"/>
<glyph d="M915.5 1300q12.5 -13 12.5 -32q0 -16 -8 -29l-398 -690v-507q0 -21 -12 -32.5t-34 -11.5q-21 0 -33 11.5t-12 32.5v507l-398 690q-8 13 -8 29q0 19 12.5 32t30.5 13q24 0 38 -23l370 -659l372 659q12 23 38 23q17 0 29.5 -13zM475 1440q-10 -12 -27 -12q-15 0 -23.5 10 t-8.5 24q0 10 4 18l129 179q7 13 15 16.5t19 3.5q16 0 28.5 -13t12.5 -29q0 -14 -12 -28z" glyph-name="Yacute" horiz-adv-x="953" unicode="Ý"/>
<glyph d="M203 42v1227q0 21 12 32.5t33 11.5q45 0 45 -38v-181h187q467 0 467 -421v-21q0 -417 -468 -417h-185v-194q0 -43 -46 -43q-45 0 -45 44zM480 326q192 0 284 79.5t92 252.5v16q0 170 -91 249.5t-282 79.5h-189v-677h186z" glyph-name="Thorn" horiz-adv-x="1059" unicode="Þ"/>
<glyph d="M538 1q-54 16 -107 41q-14 4 -21.5 15.5t-7.5 26.5q0 16 11.5 29t29.5 11q63 -27 109 -41.5t105 -14.5q95 0 149.5 54t54.5 152q0 143 -163 248q-75 49 -115.5 97t-40.5 114q0 39 13 71.5t30 55t51 62.5q34 36 54.5 75t20.5 87q0 49 -25 93.5t-70.5 72t-104.5 27.5 q-71 0 -124.5 -32.5t-82.5 -90.5t-29 -131v-979q0 -22 -12 -34t-32 -12t-31 12t-11 34v986q0 93 40.5 168.5t114 119t170.5 43.5q81 0 146 -39.5t102 -102.5t37 -131q0 -58 -24 -107t-60 -82q-34 -38 -49 -57t-26.5 -44.5t-11.5 -54.5q0 -47 31.5 -83t99.5 -83 q94 -64 141.5 -137.5t47.5 -164.5q0 -137 -75.5 -213.5t-207.5 -76.5q-73 0 -127 16z" glyph-name="germandbls" horiz-adv-x="1073" unicode="ß"/>
<glyph d="M677 887.5q82 -84.5 82 -232.5v-553q0 -27 -7.5 -39t-36.5 -23q-56 -24 -134.5 -39.5t-165.5 -15.5q-97 0 -168.5 35t-110 100.5t-38.5 155.5v3q0 142 84.5 214t234.5 72q139 0 256 -42v128q0 114 -61.5 175.5t-168.5 61.5q-104 0 -202 -44q-4 -1 -12 -3.5t-17 -2.5 q-13 0 -23.5 12.5t-10.5 27.5q0 28 27 41q118 53 243 53q147 0 229 -84.5zM673 109v344q-50 18 -114 29t-131 11q-117 0 -181 -52t-64 -157v-1q0 -105 63.5 -164.5t177.5 -59.5q127 0 249 50zM329 1327q0 17 12.5 30t28.5 13q11 0 18.5 -3.5t14.5 -16.5l129 -179q4 -8 4 -18 q0 -14 -8.5 -24t-23.5 -10t-27 12l-137 169q-11 12 -11 27z" glyph-name="agrave" horiz-adv-x="919" unicode="à"/>
<glyph d="M677 887.5q82 -84.5 82 -232.5v-553q0 -27 -7.5 -39t-36.5 -23q-56 -24 -134.5 -39.5t-165.5 -15.5q-97 0 -168.5 35t-110 100.5t-38.5 155.5v3q0 142 84.5 214t234.5 72q139 0 256 -42v128q0 114 -61.5 175.5t-168.5 61.5q-104 0 -202 -44q-4 -1 -12 -3.5t-17 -2.5 q-13 0 -23.5 12.5t-10.5 27.5q0 28 27 41q118 53 243 53q147 0 229 -84.5zM673 109v344q-50 18 -114 29t-131 11q-117 0 -181 -52t-64 -157v-1q0 -105 63.5 -164.5t177.5 -59.5q127 0 249 50zM457 1129q-10 -12 -27 -12q-15 0 -23.5 10t-8.5 24q0 10 4 18l129 179 q7 13 15 16.5t19 3.5q16 0 28.5 -13t12.5 -29q0 -14 -12 -28z" glyph-name="aacute" horiz-adv-x="919" unicode="á"/>
<glyph d="M677 887.5q82 -84.5 82 -232.5v-553q0 -27 -7.5 -39t-36.5 -23q-56 -24 -134.5 -39.5t-165.5 -15.5q-97 0 -168.5 35t-110 100.5t-38.5 155.5v3q0 142 84.5 214t234.5 72q139 0 256 -42v128q0 114 -61.5 175.5t-168.5 61.5q-104 0 -202 -44q-4 -1 -12 -3.5t-17 -2.5 q-13 0 -23.5 12.5t-10.5 27.5q0 28 27 41q118 53 243 53q147 0 229 -84.5zM673 109v344q-50 18 -114 29t-131 11q-117 0 -181 -52t-64 -157v-1q0 -105 63.5 -164.5t177.5 -59.5q127 0 249 50zM458 1285l-132 -118q-6 -6 -11.5 -7.5t-14.5 -1.5q-14 0 -23 9.5t-9 22.5 q0 9 5 16.5t16 16.5l141 126q15 11 28 11t28 -11l140 -126q12 -9 17 -16t5 -17q0 -13 -10 -22.5t-23 -9.5q-14 0 -26 9z" glyph-name="acircumflex" horiz-adv-x="919" unicode="â"/>
<glyph d="M677 887.5q82 -84.5 82 -232.5v-553q0 -27 -7.5 -39t-36.5 -23q-56 -24 -134.5 -39.5t-165.5 -15.5q-97 0 -168.5 35t-110 100.5t-38.5 155.5v3q0 142 84.5 214t234.5 72q139 0 256 -42v128q0 114 -61.5 175.5t-168.5 61.5q-104 0 -202 -44q-4 -1 -12 -3.5t-17 -2.5 q-13 0 -23.5 12.5t-10.5 27.5q0 28 27 41q118 53 243 53q147 0 229 -84.5zM673 109v344q-50 18 -114 29t-131 11q-117 0 -181 -52t-64 -157v-1q0 -105 63.5 -164.5t177.5 -59.5q127 0 249 50zM676.5 1282q9.5 -9 9.5 -22q0 -9 -2.5 -15.5t-10.5 -15.5q-25 -31 -55 -46 t-69 -15q-30 0 -51.5 9t-48.5 27q-23 16 -39 23.5t-38 7.5q-23 0 -42.5 -10.5t-42.5 -34.5q-5 -4 -10 -7.5t-11 -3.5q-15 0 -24.5 9.5t-9.5 22.5q0 9 2.5 15.5t11.5 15.5q27 30 56.5 45t65.5 15q31 0 53 -9.5t48 -27.5q24 -15 40 -22.5t37 -7.5q49 0 85 45q6 6 10.5 8.5 t10.5 2.5q15 0 24.5 -9z" glyph-name="atilde" horiz-adv-x="919" unicode="ã"/>
<glyph d="M677 887.5q82 -84.5 82 -232.5v-553q0 -27 -7.5 -39t-36.5 -23q-56 -24 -134.5 -39.5t-165.5 -15.5q-97 0 -168.5 35t-110 100.5t-38.5 155.5v3q0 142 84.5 214t234.5 72q139 0 256 -42v128q0 114 -61.5 175.5t-168.5 61.5q-104 0 -202 -44q-4 -1 -12 -3.5t-17 -2.5 q-13 0 -23.5 12.5t-10.5 27.5q0 28 27 41q118 53 243 53q147 0 229 -84.5zM673 109v344q-50 18 -114 29t-131 11q-117 0 -181 -52t-64 -157v-1q0 -105 63.5 -164.5t177.5 -59.5q127 0 249 50zM286 1259q15 15 36 15q23 0 38 -14.5t15 -37.5q0 -22 -15 -36.5t-38 -14.5 q-21 0 -36 14.5t-15 36.5t15 37zM555.5 1259q15.5 15 36.5 15q22 0 37 -14.5t15 -37.5q0 -22 -15 -36.5t-37 -14.5q-21 0 -36.5 15t-15.5 36q0 22 15.5 37z" glyph-name="adieresis" horiz-adv-x="919" unicode="ä"/>
<glyph d="M677 887.5q82 -84.5 82 -232.5v-553q0 -27 -7.5 -39t-36.5 -23q-56 -24 -134.5 -39.5t-165.5 -15.5q-97 0 -168.5 35t-110 100.5t-38.5 155.5v3q0 142 84.5 214t234.5 72q139 0 256 -42v128q0 114 -61.5 175.5t-168.5 61.5q-104 0 -202 -44q-4 -1 -12 -3.5t-17 -2.5 q-13 0 -23.5 12.5t-10.5 27.5q0 28 27 41q118 53 243 53q147 0 229 -84.5zM673 109v344q-50 18 -114 29t-131 11q-117 0 -181 -52t-64 -157v-1q0 -105 63.5 -164.5t177.5 -59.5q127 0 249 50zM374.5 1156q-34.5 35 -34.5 84t34.5 83.5t83.5 34.5t83.5 -34.5t34.5 -83.5 t-34.5 -84t-83.5 -35t-83.5 35zM508 1189q21 21 21 50t-21 50t-50 21t-49.5 -21t-20.5 -50t20.5 -50t49.5 -21t50 21z" glyph-name="aring" horiz-adv-x="919" unicode="å"/>
<glyph d="M1186 927.5q78 -44.5 122.5 -119t44.5 -161.5v-150q0 -17 -10.5 -28t-28.5 -11h-555v-170q5 -61 39.5 -112t91 -81t123.5 -30q47 0 87 10.5t63 22t60 32.5q5 2 12.5 6t15.5 4q18 0 29 -12t11 -28q0 -22 -19 -35q-128 -80 -259 -80q-77 0 -142.5 28t-111.5 78 q-1 -20 -9.5 -30.5t-34.5 -20.5q-56 -24 -134.5 -39.5t-165.5 -15.5q-97 0 -168.5 35t-110 100.5t-38.5 155.5v3q0 142 84.5 214t234.5 72q139 0 256 -42v128q0 114 -61.5 175.5t-168.5 61.5q-104 0 -202 -44q-4 -1 -12 -3.5t-17 -2.5q-13 0 -23.5 12.5t-10.5 27.5 q0 28 27 41q118 53 243 53q99 0 169.5 -39t106.5 -112q44 70 120 110.5t169 40.5q95 0 173 -44.5zM759 655v-125h511v123q0 66 -34.5 121.5t-93.5 88t-129 32.5q-67 0 -123.5 -29t-91.5 -79.5t-39 -114.5v-17zM673 109v344q-50 18 -114 29t-131 11q-117 0 -181 -52t-64 -157 v-1q0 -105 63.5 -164.5t177.5 -59.5q127 0 249 50z" glyph-name="ae" horiz-adv-x="1439" unicode="æ"/>
<glyph d="M733 127q10 -12 10 -28q0 -18 -17 -31q-56 -38 -111.5 -60t-143.5 -23l-14 -45q72 -8 110.5 -40t38.5 -87q0 -106 -157 -153l-33 -10q-8 -2 -10 -2q-12 0 -20 8.5t-8 21.5v3q0 16 18 22l28 8q60 19 90.5 42t30.5 58q0 38 -25 56t-87 27q-12 0 -18.5 6t-6.5 18q0 7 1 11 l14 58q-87 9 -154.5 54t-105 114t-37.5 150v346q0 88 44.5 162t122.5 116.5t174 42.5q87 0 148.5 -24.5t110.5 -59.5q17 -13 17 -31q0 -15 -10 -27t-22 -13l-9 -1q-8 0 -14.5 2.5t-9.5 3.5q-45 29 -94.5 47.5t-120.5 18.5q-69 0 -127 -31.5t-91.5 -86t-33.5 -121.5v-342 q0 -64 32.5 -119t90 -87.5t129.5 -32.5t119.5 17.5t95.5 48.5q16 6 24 6l9 -1q12 0 22 -12z" glyph-name="ccedilla" horiz-adv-x="829" unicode="ç"/>
<glyph d="M637 927.5q78 -44.5 122.5 -119t44.5 -161.5v-150q0 -17 -10.5 -28t-28.5 -11h-556v-148q0 -66 33.5 -122t92 -89.5t129.5 -33.5q47 0 87 10.5t63 22t60 32.5q5 2 12.5 6t15.5 4q18 0 29 -12t11 -28q0 -22 -19 -35q-128 -80 -259 -80q-95 0 -172.5 43t-121.5 116t-44 159 v348q0 88 44 161.5t121 116.5t173 43q95 0 173 -44.5zM209 530h512v123q0 66 -34.5 121.5t-93.5 88t-129 32.5q-71 0 -129 -31.5t-92 -87t-34 -123.5v-123zM325 1327q0 17 12.5 30t28.5 13q11 0 18.5 -3.5t14.5 -16.5l129 -179q4 -8 4 -18q0 -14 -8.5 -24t-23.5 -10t-27 12 l-137 169q-11 12 -11 27z" glyph-name="egrave" horiz-adv-x="890" unicode="è"/>
<glyph d="M637 927.5q78 -44.5 122.5 -119t44.5 -161.5v-150q0 -17 -10.5 -28t-28.5 -11h-556v-148q0 -66 33.5 -122t92 -89.5t129.5 -33.5q47 0 87 10.5t63 22t60 32.5q5 2 12.5 6t15.5 4q18 0 29 -12t11 -28q0 -22 -19 -35q-128 -80 -259 -80q-95 0 -172.5 43t-121.5 116t-44 159 v348q0 88 44 161.5t121 116.5t173 43q95 0 173 -44.5zM209 530h512v123q0 66 -34.5 121.5t-93.5 88t-129 32.5q-71 0 -129 -31.5t-92 -87t-34 -123.5v-123zM453 1129q-10 -12 -27 -12q-15 0 -23.5 10t-8.5 24q0 10 4 18l129 179q7 13 15 16.5t19 3.5q16 0 28.5 -13t12.5 -29 q0 -14 -12 -28z" glyph-name="eacute" horiz-adv-x="890" unicode="é"/>
<glyph d="M637 927.5q78 -44.5 122.5 -119t44.5 -161.5v-150q0 -17 -10.5 -28t-28.5 -11h-556v-148q0 -66 33.5 -122t92 -89.5t129.5 -33.5q47 0 87 10.5t63 22t60 32.5q5 2 12.5 6t15.5 4q18 0 29 -12t11 -28q0 -22 -19 -35q-128 -80 -259 -80q-95 0 -172.5 43t-121.5 116t-44 159 v348q0 88 44 161.5t121 116.5t173 43q95 0 173 -44.5zM209 530h512v123q0 66 -34.5 121.5t-93.5 88t-129 32.5q-71 0 -129 -31.5t-92 -87t-34 -123.5v-123zM455 1285l-132 -118q-6 -6 -11.5 -7.5t-14.5 -1.5q-14 0 -23 9.5t-9 22.5q0 9 5 16.5t16 16.5l141 126q15 11 28 11 t28 -11l140 -126q12 -9 17 -16t5 -17q0 -13 -10 -22.5t-23 -9.5q-14 0 -26 9z" glyph-name="ecircumflex" horiz-adv-x="890" unicode="ê"/>
<glyph d="M637 927.5q78 -44.5 122.5 -119t44.5 -161.5v-150q0 -17 -10.5 -28t-28.5 -11h-556v-148q0 -66 33.5 -122t92 -89.5t129.5 -33.5q47 0 87 10.5t63 22t60 32.5q5 2 12.5 6t15.5 4q18 0 29 -12t11 -28q0 -22 -19 -35q-128 -80 -259 -80q-95 0 -172.5 43t-121.5 116t-44 159 v348q0 88 44 161.5t121 116.5t173 43q95 0 173 -44.5zM209 530h512v123q0 66 -34.5 121.5t-93.5 88t-129 32.5q-71 0 -129 -31.5t-92 -87t-34 -123.5v-123zM282 1259q15 15 36 15q23 0 38 -14.5t15 -37.5q0 -22 -15 -36.5t-38 -14.5q-21 0 -36 14.5t-15 36.5t15 37z M551.5 1259q15.5 15 36.5 15q22 0 37 -14.5t15 -37.5q0 -22 -15 -36.5t-37 -14.5q-21 0 -36.5 15t-15.5 36q0 22 15.5 37z" glyph-name="edieresis" horiz-adv-x="890" unicode="ë"/>
<glyph d="M319 913v-1v-871q0 -21 -11 -32t-31 -11q-21 0 -32.5 11t-11.5 32v833h-127q-20 0 -30.5 10.5t-10.5 30.5q0 41 41 41h168h1h1q28 0 38 -19q5 -10 5 -23v-1zM107 1324q0 17 12.5 30t28.5 13q11 0 18.5 -3.5t14.5 -16.5l129 -179q4 -8 4 -18q0 -14 -8.5 -24t-23.5 -10 t-27 12l-137 169q-11 12 -11 27z" glyph-name="igrave" horiz-adv-x="497" unicode="ì"/>
<glyph d="M319 913v-1v-871q0 -21 -11 -32t-31 -11q-21 0 -32.5 11t-11.5 32v833h-127q-20 0 -30.5 10.5t-10.5 30.5q0 41 41 41h168h1h1q28 0 38 -19q5 -10 5 -23v-1zM235 1126q-10 -12 -27 -12q-15 0 -23.5 10t-8.5 24q0 10 4 18l129 179q7 13 15 16.5t19 3.5q16 0 28.5 -13 t12.5 -29q0 -14 -12 -28z" glyph-name="iacute" horiz-adv-x="497" unicode="í"/>
<glyph d="M319 913v-1v-871q0 -21 -11 -32t-31 -11q-21 0 -32.5 11t-11.5 32v833h-127q-20 0 -30.5 10.5t-10.5 30.5q0 41 41 41h168h1h1q28 0 38 -19q5 -10 5 -23v-1zM237 1282l-132 -118q-6 -6 -11.5 -7.5t-14.5 -1.5q-14 0 -23 9.5t-9 22.5q0 9 5 16.5t16 16.5l141 126 q15 11 28 11t28 -11l140 -126q12 -9 17 -16t5 -17q0 -13 -10 -22.5t-23 -9.5q-14 0 -26 9z" glyph-name="icircumflex" horiz-adv-x="497" unicode="î"/>
<glyph d="M319 913v-1v-871q0 -21 -11 -32t-31 -11q-21 0 -32.5 11t-11.5 32v833h-127q-20 0 -30.5 10.5t-10.5 30.5q0 41 41 41h168h1h1q28 0 38 -19q5 -10 5 -23v-1zM64 1256q15 15 36 15q23 0 38 -14.5t15 -37.5q0 -22 -15 -36.5t-38 -14.5q-21 0 -36 14.5t-15 36.5t15 37z M333.5 1256q15.5 15 36.5 15q22 0 37 -14.5t15 -37.5q0 -22 -15 -36.5t-37 -14.5q-21 0 -36.5 15t-15.5 36q0 22 15.5 37z" glyph-name="idieresis" horiz-adv-x="497" unicode="ï"/>
<glyph d="M745 1005.5q59 -145.5 59 -358.5v-343q0 -89 -45 -162t-123 -115t-172 -42q-93 0 -170.5 42t-122.5 115t-45 162v339q0 88 45 161t122.5 114.5t170.5 41.5q68 0 129 -22t107 -62q-47 199 -189 306l-111 -81q-16 -18 -30 -18q-8 0 -14 6q-13 9 -13 22q0 11 11 24l109 79 q-44 24 -84 39q-9 4 -17 14t-8 22q0 19 12 29t31 10q4 0 16 -2q67 -20 125 -58l109 79q16 16 29 16q10 0 17 -7q12 -9 12 -19q0 -9 -13 -24l-108 -78q102 -84 161 -229.5zM719 639q0 67 -34 122t-92 86t-129 31q-70 0 -128 -31t-91.5 -86t-33.5 -122v-332q0 -67 33.5 -121.5 t91.5 -86t128 -31.5q71 0 129 31.5t92 86t34 121.5v332z" glyph-name="eth" horiz-adv-x="930" unicode="ð"/>
<glyph d="M706.5 933.5q71.5 -38.5 111 -112.5t39.5 -178v-601q0 -21 -11.5 -32.5t-31.5 -11.5q-42 0 -42 44v597q0 122 -64.5 185t-175.5 63q-141 0 -268 -49v-796q0 -22 -10.5 -33t-30.5 -11q-21 0 -32.5 11t-11.5 33v826q0 14 6 25t17 16q144 63 337 63q96 0 167.5 -38.5z M736.5 1282q9.5 -9 9.5 -22q0 -9 -2.5 -15.5t-10.5 -15.5q-25 -31 -55 -46t-69 -15q-30 0 -51.5 9t-48.5 27q-23 16 -39 23.5t-38 7.5q-23 0 -42.5 -10.5t-42.5 -34.5q-5 -4 -10 -7.5t-11 -3.5q-15 0 -24.5 9.5t-9.5 22.5q0 9 2.5 15.5t11.5 15.5q27 30 56.5 45t65.5 15 q31 0 53 -9.5t48 -27.5q24 -15 40 -22.5t37 -7.5q49 0 85 45q6 6 10.5 8.5t10.5 2.5q15 0 24.5 -9z" glyph-name="ntilde" horiz-adv-x="1018" unicode="ñ"/>
<glyph d="M126 652q0 89 45 162t122.5 115.5t170.5 42.5q94 0 171.5 -42.5t123 -115.5t45.5 -162v-348q0 -89 -45 -162t-123 -115t-172 -42q-93 0 -170.5 42t-122.5 115t-45 162v348zM211 307q0 -67 33.5 -121.5t91.5 -86t128 -31.5q71 0 129 31.5t92 86t34 121.5v342 q0 67 -34 121.5t-92 86t-129 31.5q-70 0 -128 -31.5t-91.5 -86t-33.5 -121.5v-342zM336 1327q0 17 12.5 30t28.5 13q11 0 18.5 -3.5t14.5 -16.5l129 -179q4 -8 4 -18q0 -14 -8.5 -24t-23.5 -10t-27 12l-137 169q-11 12 -11 27z" glyph-name="ograve" horiz-adv-x="930" unicode="ò"/>
<glyph d="M126 652q0 89 45 162t122.5 115.5t170.5 42.5q94 0 171.5 -42.5t123 -115.5t45.5 -162v-348q0 -89 -45 -162t-123 -115t-172 -42q-93 0 -170.5 42t-122.5 115t-45 162v348zM211 307q0 -67 33.5 -121.5t91.5 -86t128 -31.5q71 0 129 31.5t92 86t34 121.5v342 q0 67 -34 121.5t-92 86t-129 31.5q-70 0 -128 -31.5t-91.5 -86t-33.5 -121.5v-342zM464 1129q-10 -12 -27 -12q-15 0 -23.5 10t-8.5 24q0 10 4 18l129 179q7 13 15 16.5t19 3.5q16 0 28.5 -13t12.5 -29q0 -14 -12 -28z" glyph-name="oacute" horiz-adv-x="930" unicode="ó"/>
<glyph d="M126 652q0 89 45 162t122.5 115.5t170.5 42.5q94 0 171.5 -42.5t123 -115.5t45.5 -162v-348q0 -89 -45 -162t-123 -115t-172 -42q-93 0 -170.5 42t-122.5 115t-45 162v348zM211 307q0 -67 33.5 -121.5t91.5 -86t128 -31.5q71 0 129 31.5t92 86t34 121.5v342 q0 67 -34 121.5t-92 86t-129 31.5q-70 0 -128 -31.5t-91.5 -86t-33.5 -121.5v-342zM465 1285l-132 -118q-6 -6 -11.5 -7.5t-14.5 -1.5q-14 0 -23 9.5t-9 22.5q0 9 5 16.5t16 16.5l141 126q15 11 28 11t28 -11l140 -126q12 -9 17 -16t5 -17q0 -13 -10 -22.5t-23 -9.5 q-14 0 -26 9z" glyph-name="ocircumflex" horiz-adv-x="930" unicode="ô"/>
<glyph d="M126 652q0 89 45 162t122.5 115.5t170.5 42.5q94 0 171.5 -42.5t123 -115.5t45.5 -162v-348q0 -89 -45 -162t-123 -115t-172 -42q-93 0 -170.5 42t-122.5 115t-45 162v348zM211 307q0 -67 33.5 -121.5t91.5 -86t128 -31.5q71 0 129 31.5t92 86t34 121.5v342 q0 67 -34 121.5t-92 86t-129 31.5q-70 0 -128 -31.5t-91.5 -86t-33.5 -121.5v-342zM683.5 1282q9.5 -9 9.5 -22q0 -9 -2.5 -15.5t-10.5 -15.5q-25 -31 -55 -46t-69 -15q-30 0 -51.5 9t-48.5 27q-23 16 -39 23.5t-38 7.5q-23 0 -42.5 -10.5t-42.5 -34.5q-5 -4 -10 -7.5 t-11 -3.5q-15 0 -24.5 9.5t-9.5 22.5q0 9 2.5 15.5t11.5 15.5q27 30 56.5 45t65.5 15q31 0 53 -9.5t48 -27.5q24 -15 40 -22.5t37 -7.5q49 0 85 45q6 6 10.5 8.5t10.5 2.5q15 0 24.5 -9z" glyph-name="otilde" horiz-adv-x="930" unicode="õ"/>
<glyph d="M126 652q0 89 45 162t122.5 115.5t170.5 42.5q94 0 171.5 -42.5t123 -115.5t45.5 -162v-348q0 -89 -45 -162t-123 -115t-172 -42q-93 0 -170.5 42t-122.5 115t-45 162v348zM211 307q0 -67 33.5 -121.5t91.5 -86t128 -31.5q71 0 129 31.5t92 86t34 121.5v342 q0 67 -34 121.5t-92 86t-129 31.5q-70 0 -128 -31.5t-91.5 -86t-33.5 -121.5v-342zM293 1259q15 15 36 15q23 0 38 -14.5t15 -37.5q0 -22 -15 -36.5t-38 -14.5q-21 0 -36 14.5t-15 36.5t15 37zM562.5 1259q15.5 15 36.5 15q22 0 37 -14.5t15 -37.5q0 -22 -15 -36.5 t-37 -14.5q-21 0 -36.5 15t-15.5 36q0 22 15.5 37z" glyph-name="odieresis" horiz-adv-x="930" unicode="ö"/>
<glyph d="M360 859.5q-16 16.5 -16 40.5q0 25 16 41t39 16q26 0 42.5 -16t16.5 -41q0 -24 -17 -40.5t-42 -16.5q-23 0 -39 16.5zM39 460q-12 11 -12 32q0 20 12 31.5t33 11.5h653q22 0 33 -11t11 -32q0 -43 -44 -43h-653q-21 0 -33 11zM360.5 77.5q-16.5 16.5 -16.5 39.5 q0 25 16.5 41.5t39.5 16.5q25 0 41.5 -16.5t16.5 -41.5q0 -23 -16.5 -39.5t-41.5 -16.5q-23 0 -39.5 16.5z" glyph-name="divide" horiz-adv-x="797" unicode="÷"/>
<glyph d="M780.5 771q23.5 -56 23.5 -119v-348q0 -89 -45 -162t-123 -115t-172 -42q-107 0 -192 55l-38 -71q-16 -26 -36 -21q-14 1 -22 8.5t-8 19.5q0 10 6 21l45 85q-44 43 -68.5 100.5t-24.5 121.5v348q0 89 45 162t122.5 115.5t170.5 42.5q109 0 196 -57l38 71q17 28 37 24 q15 -1 23 -9t8 -21q0 -11 -6 -22l-46 -87q43 -44 66.5 -100zM261 162l359 678q-32 23 -72 35.5t-84 12.5q-70 0 -128 -31.5t-91.5 -86t-33.5 -121.5v-342q0 -82 50 -145zM719 649q0 80 -48 142l-360 -677q68 -46 153 -46q71 0 129 31.5t92 86t34 121.5v342z" glyph-name="oslash" horiz-adv-x="930" unicode="ø"/>
<glyph d="M324 25.5q-76 40.5 -119.5 112.5t-43.5 162v614q0 21 11.5 33t31.5 12t31 -11.5t11 -33.5v-612q0 -67 34 -120.5t92.5 -83.5t129.5 -30q78 0 135 13.5t117 37.5v795q0 22 10.5 33.5t30.5 11.5q21 0 32.5 -11.5t11.5 -33.5v-826q0 -14 -6 -25t-17 -15q-70 -30 -147 -46.5 t-175 -16.5q-94 0 -170 40.5zM371 1327q0 17 12.5 30t28.5 13q11 0 18.5 -3.5t14.5 -16.5l129 -179q4 -8 4 -18q0 -14 -8.5 -24t-23.5 -10t-27 12l-137 169q-11 12 -11 27z" glyph-name="ugrave" horiz-adv-x="1018" unicode="ù"/>
<glyph d="M324 25.5q-76 40.5 -119.5 112.5t-43.5 162v614q0 21 11.5 33t31.5 12t31 -11.5t11 -33.5v-612q0 -67 34 -120.5t92.5 -83.5t129.5 -30q78 0 135 13.5t117 37.5v795q0 22 10.5 33.5t30.5 11.5q21 0 32.5 -11.5t11.5 -33.5v-826q0 -14 -6 -25t-17 -15q-70 -30 -147 -46.5 t-175 -16.5q-94 0 -170 40.5zM499 1129q-10 -12 -27 -12q-15 0 -23.5 10t-8.5 24q0 10 4 18l129 179q7 13 15 16.5t19 3.5q16 0 28.5 -13t12.5 -29q0 -14 -12 -28z" glyph-name="uacute" horiz-adv-x="1018" unicode="ú"/>
<glyph d="M324 25.5q-76 40.5 -119.5 112.5t-43.5 162v614q0 21 11.5 33t31.5 12t31 -11.5t11 -33.5v-612q0 -67 34 -120.5t92.5 -83.5t129.5 -30q78 0 135 13.5t117 37.5v795q0 22 10.5 33.5t30.5 11.5q21 0 32.5 -11.5t11.5 -33.5v-826q0 -14 -6 -25t-17 -15q-70 -30 -147 -46.5 t-175 -16.5q-94 0 -170 40.5zM501 1285l-132 -118q-6 -6 -11.5 -7.5t-14.5 -1.5q-14 0 -23 9.5t-9 22.5q0 9 5 16.5t16 16.5l141 126q15 11 28 11t28 -11l140 -126q12 -9 17 -16t5 -17q0 -13 -10 -22.5t-23 -9.5q-14 0 -26 9z" glyph-name="ucircumflex" horiz-adv-x="1018" unicode="û"/>
<glyph d="M324 25.5q-76 40.5 -119.5 112.5t-43.5 162v614q0 21 11.5 33t31.5 12t31 -11.5t11 -33.5v-612q0 -67 34 -120.5t92.5 -83.5t129.5 -30q78 0 135 13.5t117 37.5v795q0 22 10.5 33.5t30.5 11.5q21 0 32.5 -11.5t11.5 -33.5v-826q0 -14 -6 -25t-17 -15q-70 -30 -147 -46.5 t-175 -16.5q-94 0 -170 40.5zM328 1259q15 15 36 15q23 0 38 -14.5t15 -37.5q0 -22 -15 -36.5t-38 -14.5q-21 0 -36 14.5t-15 36.5t15 37zM597.5 1259q15.5 15 36.5 15q22 0 37 -14.5t15 -37.5q0 -22 -15 -36.5t-37 -14.5q-21 0 -36.5 15t-15.5 36q0 22 15.5 37z" glyph-name="udieresis" horiz-adv-x="1018" unicode="ü"/>
<glyph d="M827.5 947.5q11.5 -11.5 11.5 -33.5v-871q0 -180 -70.5 -274.5t-201.5 -94.5q-101 0 -193 22q-42 8 -42 41q0 41 36 41l9 -1q23 -4 37 -7q40 -7 71.5 -11t72.5 -4q101 0 151 72.5t50 223.5v16q-121 -42 -265 -42q-94 0 -170 40.5t-119.5 112.5t-43.5 162v574 q0 21 11.5 33t31.5 12t31 -11.5t11 -33.5v-572q0 -67 34 -120t92.5 -83t129.5 -30q79 0 136.5 13t115.5 37v755q0 22 10.5 33.5t30.5 11.5q21 0 32.5 -11.5zM499 1129q-10 -12 -27 -12q-15 0 -23.5 10t-8.5 24q0 10 4 18l129 179q7 13 15 16.5t19 3.5q16 0 28.5 -13 t12.5 -29q0 -14 -12 -28z" glyph-name="yacute" horiz-adv-x="1018" unicode="ý"/>
<glyph d="M703.5 930q76.5 -42 120 -115t43.5 -162v-349q0 -87 -44.5 -160t-122.5 -116t-173 -43q-83 0 -140 13t-113 32q-2 -8 -4 -12l5 -20v-283q0 -45 -44 -45q-42 0 -42 45v1589q0 44 42 44q44 0 44 -44v-373q132 41 259 41q93 0 169.5 -42zM782 649q0 67 -34 121.5t-92.5 86 t-129.5 31.5q-56 0 -104 -8.5t-70.5 -15.5t-76.5 -25v-721q4 -1 65.5 -25.5t185.5 -24.5q71 0 129.5 31t92.5 86t34 122v342z" glyph-name="thorn" horiz-adv-x="993" unicode="þ"/>
<glyph d="M319 913v-1v-871q0 -21 -11 -32t-31 -11q-21 0 -32.5 11t-11.5 32v833h-127q-20 0 -30.5 10.5t-10.5 30.5q0 41 41 41h168h1h1q28 0 38 -19q5 -10 5 -23v-1z" glyph-name="dotlessi" horiz-adv-x="497" unicode="ı"/>
<glyph d="M319 913v-1v-974q0 -267 -215 -267q-32 0 -104 15q-21 4 -31 12t-10 26q0 21 11 33.5t32 9.5q71 -15 96 -15q73 0 104 47t31 144v931h-127q-20 0 -30.5 10.5t-10.5 30.5q0 41 41 41h168h1h1q28 0 38 -19q5 -10 5 -23v-1z" glyph-name="uni0237" horiz-adv-x="497" unicode="ȷ"/>
<glyph d="M-458 1326q0 17 12.5 30t28.5 13q11 0 18.5 -3.5t14.5 -16.5l129 -179q4 -8 4 -18q0 -14 -8.5 -24t-23.5 -10t-27 12l-137 169q-11 12 -11 27z" glyph-name="gravecomb" unicode="̀"/>
<glyph d="M-318 1130q-10 -12 -27 -12q-15 0 -23.5 10t-8.5 24q0 10 4 18l129 179q7 13 15 16.5t19 3.5q16 0 28.5 -13t12.5 -29q0 -14 -12 -28z" glyph-name="acutecomb" unicode="́"/>
<glyph d="M-410 1285l-132 -118q-6 -6 -11.5 -7.5t-14.5 -1.5q-14 0 -23 9.5t-9 22.5q0 9 5 16.5t16 16.5l141 126q15 11 28 11t28 -11l140 -126q12 -9 17 -16t5 -17q0 -13 -10 -22.5t-23 -9.5q-14 0 -26 9z" glyph-name="uni0302" unicode="̂"/>
<glyph d="M-112.5 1281q9.5 -9 9.5 -22q0 -9 -2.5 -15.5t-10.5 -15.5q-25 -31 -55 -46t-69 -15q-30 0 -51.5 9t-48.5 27q-23 16 -39 23.5t-38 7.5q-23 0 -42.5 -10.5t-42.5 -34.5q-5 -4 -10 -7.5t-11 -3.5q-15 0 -24.5 9.5t-9.5 22.5q0 9 2.5 15.5t11.5 15.5q27 30 56.5 45t65.5 15 q31 0 53 -9.5t48 -27.5q24 -15 40 -22.5t37 -7.5q49 0 85 45q6 6 10.5 8.5t10.5 2.5q15 0 24.5 -9z" glyph-name="tildecomb" unicode="̃"/>
<glyph d="M-246 1237q36 0 36 -32q0 -37 -36 -37h-314q-35 0 -35 36q0 33 35 33h314z" glyph-name="uni0304" unicode="̄"/>
<glyph d="M-263 1176q-18 18 -18 43q0 26 18 44.5t44 18.5t44 -18.5t18 -44.5t-18 -43.5t-44 -17.5t-44 18z" glyph-name="uni0307" unicode="̇"/>
<glyph d="M-566 1259q15 15 36 15q23 0 38 -14.5t15 -37.5q0 -22 -15 -36.5t-38 -14.5q-21 0 -36 14.5t-15 36.5t15 37zM-296.5 1259q15.5 15 36.5 15q22 0 37 -14.5t15 -37.5q0 -22 -15 -36.5t-37 -14.5q-21 0 -36.5 15t-15.5 36q0 22 15.5 37z" glyph-name="uni0308" unicode="̈"/>
<glyph d="M-378.5 1155q-34.5 35 -34.5 84t34.5 83.5t83.5 34.5t83.5 -34.5t34.5 -83.5t-34.5 -84t-83.5 -35t-83.5 35zM-245 1188q21 21 21 50t-21 50t-50 21t-49.5 -21t-20.5 -50t20.5 -50t49.5 -21t50 21z" glyph-name="uni030A" unicode="̊"/>
<glyph d="M-213 2h49l-18 -59q72 -8 110.5 -40t38.5 -87q0 -106 -157 -153l-33 -10q-8 -2 -10 -2q-12 0 -20 8.5t-8 21.5v3q0 16 18 22l28 8q60 19 90.5 42t30.5 58q0 38 -25 56t-87 27q-12 0 -18.5 6t-6.5 18q0 7 1 11z" glyph-name="uni0327" unicode="̧"/>
<glyph d="M845.5 947q11.5 -12 11.5 -33v-805q0 -29 -8.5 -46t-36.5 -27q-45 -17 -121.5 -34t-165.5 -17q-86 0 -154 41t-106 114v-442q0 -20 -11 -32t-31 -12q-21 0 -32.5 12.5t-11.5 33.5v1214q0 22 11.5 33.5t32.5 11.5q20 0 31 -11.5t11 -33.5v-605q0 -68 33 -123t90.5 -86.5 t127.5 -31.5q75 0 131 12.5t105 30.5l20 6v797q0 22 11 33.5t31 11.5t31.5 -12z" glyph-name="uni03BC" horiz-adv-x="1036" unicode="μ"/>
<glyph d="M121 27q-13 -30 -35 -26q-17 1 -26.5 9.5t-9.5 22.5q0 12 5 21l577 1232q5 12 15.5 19t22.5 6q34 -3 34 -31q0 -14 -7 -28z" glyph-name="fraction" horiz-adv-x="755" unicode="⁄"/>
<glyph d="M185 -195.5q-8 8.5 -8 23.5v558l-66 -42q-4 -3 -14 -3q-13 0 -21.5 9.5t-8.5 21.5q2 17 16 27l106 66q5 3 9.5 5t10.5 2q15 0 23 -9t8 -22v-613q0 -15 -8 -23.5t-23 -8.5q-16 0 -24 8.5z" glyph-name="uni2081" horiz-adv-x="443" unicode="₁"/>
<glyph d="M59.5 -192.5q-9.5 9.5 -9.5 22.5q0 10 9 23l255 288q34 38 51.5 73.5t17.5 75.5v9q0 47 -34.5 81.5t-88.5 34.5q-50 0 -81.5 -19.5t-55.5 -48.5q-5 -4 -10 -6.5t-10 -2.5q-14 0 -24 9t-10 21q0 17 14 27q31 35 73.5 59t108.5 24q51 0 92.5 -23.5t65 -63.5t23.5 -88v-14 q0 -46 -20 -91.5t-63 -93.5l-217 -243h292q32 0 32 -31q0 -32 -32 -32h-356q-13 0 -22.5 9.5z" glyph-name="uni2082" horiz-adv-x="529" unicode="₂"/>
<glyph d="M404 185q55 -51 55 -140v-44q0 -58 -28.5 -106.5t-78 -76.5t-109.5 -28q-55 0 -92.5 17.5t-69.5 44.5q-16 8 -23 15.5t-7 20.5q0 11 8 21t23 10q10 0 23 -9q3 -3 23 -20t51 -28t68 -11q42 0 76 20.5t53.5 55.5t19.5 76v42q0 64 -43 100.5t-109 36.5h-31q-12 0 -20.5 8 t-9.5 21q0 16 10 25l159 172h-253q-16 0 -24.5 7.5t-8.5 21.5q0 16 9 24.5t24 8.5h307q16 0 24 -8.5t8 -21.5q0 -18 -15 -30l-163 -174h1q88 0 143 -51z" glyph-name="uni2083" horiz-adv-x="529" unicode="₃"/>
<glyph d="M59.5 7.5q-9.5 9.5 -9.5 22.5q0 10 9 23l255 288q34 38 51.5 73.5t17.5 75.5v9q0 47 -34.5 81.5t-88.5 34.5q-50 0 -81.5 -19.5t-55.5 -48.5q-5 -4 -10 -6.5t-10 -2.5q-14 0 -24 9t-10 21q0 17 14 27q31 35 73.5 59t108.5 24q51 0 92.5 -23.5t65 -63.5t23.5 -88v-14 q0 -46 -20 -91.5t-63 -93.5l-217 -243h292q32 0 32 -31q0 -32 -32 -32h-356q-13 0 -22.5 9.5z" glyph-name="two.dnom" horiz-adv-x="529"/>
<glyph d="M346.5 6.5q-8.5 8.5 -8.5 23.5v128h-264q-15 0 -24 9.5t-9 26.5q0 7 3 16l205 441q7 20 30 20q14 0 22.5 -7t8.5 -20q0 -9 -3 -18l-192 -404h223v103q0 16 8.5 24.5t24.5 8.5q30 0 30 -33v-103h59q15 0 23 -8t8 -24q0 -15 -8.5 -23.5t-22.5 -8.5h-59v-128 q0 -15 -7.5 -23.5t-22.5 -8.5q-16 0 -24.5 8.5z" glyph-name="four.dnom" horiz-adv-x="528"/>
<glyph d="M112 1095q0 63 26.5 113.5t72.5 79.5t103 29q58 0 104.5 -29t73.5 -79.5t27 -113.5v-246q0 -62 -27 -112.5t-73.5 -79t-104.5 -28.5q-57 0 -103 28.5t-72.5 79t-26.5 112.5v246zM175 852q0 -69 39 -114.5t100 -45.5q63 0 102.5 45.5t39.5 114.5v241q0 71 -40 116t-102 45 q-61 0 -100 -45t-39 -116v-241z" glyph-name="zero.numr" horiz-adv-x="631"/>
<glyph d="M185 643.5q-8 8.5 -8 23.5v558l-66 -42q-4 -3 -14 -3q-13 0 -21.5 9.5t-8.5 21.5q2 17 16 27l106 66q5 3 9.5 5t10.5 2q15 0 23 -9t8 -22v-613q0 -15 -8 -23.5t-23 -8.5q-16 0 -24 8.5z" glyph-name="one.numr" horiz-adv-x="443"/>
<glyph d="M404 1024q55 -51 55 -140v-44q0 -58 -28.5 -106.5t-78 -76.5t-109.5 -28q-55 0 -92.5 17.5t-69.5 44.5q-16 8 -23 15.5t-7 20.5q0 11 8 21t23 10q10 0 23 -9q3 -3 23 -20t51 -28t68 -11q42 0 76 20.5t53.5 55.5t19.5 76v42q0 64 -43 100.5t-109 36.5h-31q-12 0 -20.5 8 t-9.5 21q0 16 10 25l159 172h-253q-16 0 -24.5 7.5t-8.5 21.5q0 16 9 24.5t24 8.5h307q16 0 24 -8.5t8 -21.5q0 -18 -15 -30l-163 -174h1q88 0 143 -51z" glyph-name="three.numr" horiz-adv-x="529"/>
<glyph d="M-566 1577q15 15 36 15q23 0 38 -14.5t15 -37.5q0 -22 -15 -36.5t-38 -14.5q-21 0 -36 14.5t-15 36.5t15 37zM-296.5 1577q15.5 15 36.5 15q22 0 37 -14.5t15 -37.5q0 -22 -15 -36.5t-37 -14.5q-21 0 -36.5 15t-15.5 36q0 22 15.5 37z" glyph-name="uni0308.case"/>
<glyph d="M-441 1634q0 17 12.5 30t28.5 13q11 0 18.5 -3.5t14.5 -16.5l129 -179q4 -8 4 -18q0 -14 -8.5 -24t-23.5 -10t-27 12l-137 169q-11 12 -11 27z" glyph-name="gravecomb.case"/>
<glyph d="M-318 1440q-10 -12 -27 -12q-15 0 -23.5 10t-8.5 24q0 10 4 18l129 179q7 13 15 16.5t19 3.5q16 0 28.5 -13t12.5 -29q0 -14 -12 -28z" glyph-name="acutecomb.case"/>
<glyph d="M-409 1559l-132 -118q-6 -6 -12 -7.5t-14 -1.5q-13 0 -23 10.5t-10 20.5t5 17t17 17l141 126q13 11 28 11q10 0 28 -11l140 -126q12 -9 17 -16.5t5 -17.5t-11 -20.5t-22 -10.5q-14 0 -26 9z" glyph-name="uni0302.case"/>
<glyph d="M-378.5 1512q-34.5 35 -34.5 84t34.5 83.5t83.5 34.5t83.5 -34.5t34.5 -83.5t-34.5 -84t-83.5 -35t-83.5 35zM-245 1545q21 21 21 50t-21 50t-50 21t-49.5 -21t-20.5 -50t20.5 -50t49.5 -21t50 21z" glyph-name="uni030A.case"/>
<glyph d="M-112.5 1606q9.5 -9 9.5 -22q0 -9 -2.5 -15.5t-10.5 -15.5q-25 -31 -55 -46t-69 -15q-30 0 -51.5 9t-48.5 27q-23 16 -39 23.5t-38 7.5q-23 0 -42.5 -10.5t-42.5 -34.5q-5 -4 -10 -7.5t-11 -3.5q-15 0 -24.5 9.5t-9.5 22.5q0 9 2.5 15.5t11.5 15.5q27 30 56.5 45t65.5 15 q31 0 53 -9.5t48 -27.5q24 -15 40 -22.5t37 -7.5q49 0 85 45q6 6 10.5 8.5t10.5 2.5q15 0 24.5 -9z" glyph-name="tildecomb.case"/>
</font>
</defs>
</svg>
